<?xml version="1.0" standalone="no"?>
<!DOCTYPE svg PUBLIC "-//W3C//DTD SVG 1.1//EN" "http://www.w3.org/Graphics/SVG/1.1/DTD/svg11.dtd" >
<svg>
<metadata>
Created by FontForge 20090622 at Wed Mar  1 09:48:47 2017
 By deploy user
Designed by Solaiman Karim. Redistributed By Altruists International. &#194;&#169; 2003 Altruists International All Rights Reserved.
</metadata>
<defs>
<font id="SolaimanLipi" horiz-adv-x="2" >
  <font-face 
    font-family="SolaimanLipi"
    font-weight="400"
    font-stretch="normal"
    units-per-em="2048"
    panose-1="2 0 5 0 2 0 0 2 0 4"
    ascent="1638"
    descent="-410"
    bbox="-1132 -889 2286 1767"
    underline-thickness="20"
    underline-position="-123"
    unicode-range="U+000D-U+25CC"
  />
<missing-glyph horiz-adv-x="1767" 
d="M109 1767h1550v-1767h-1550v1767zM1550 1659h-1333v-1550h1333v1550z" />
    <glyph glyph-name=".notdef" horiz-adv-x="1767" 
d="M109 1767h1550v-1767h-1550v1767zM1550 1659h-1333v-1550h1333v1550z" />
    <glyph glyph-name=".null" horiz-adv-x="0" 
 />
    <glyph glyph-name=".null" horiz-adv-x="0" 
 />
    <glyph glyph-name="nonmarkingreturn" unicode="&#xd;" horiz-adv-x="516" 
 />
    <glyph glyph-name="space" unicode=" " horiz-adv-x="516" 
 />
    <glyph glyph-name="exclam" unicode="!" horiz-adv-x="668" 
d="M449 856l-89 -760h-30l-86 760l-4 76q0 57 29 93t77 36q20 0 39 -8.5t33.5 -25.5t23.5 -42t9 -57v-6zM449 -168q0 -22 -15.5 -49t-46.5 -41l-43 -8q-23 0 -42 8t-33 21.5t-21.5 31.5t-7.5 37q0 21 8 39.5t22 32.5t33 22t41 8q18 0 37 -7.5t34 -21t24.5 -32.5t9.5 -41z
" />
    <glyph glyph-name="quotedbl" unicode="&#x22;" horiz-adv-x="711" 
d="M180 774l-59 342q0 28 21 52t55 24t54.5 -24t20.5 -52l-57 -342h-35zM494 774l-58 342q0 14 5.5 27.5t15 24.5t23.5 17.5t32 6.5q16 0 29.5 -6.5t23.5 -17.5t15.5 -24.5t5.5 -27.5l-58 -342h-34z" />
    <glyph glyph-name="numbersign" unicode="#" horiz-adv-x="961" 
d="M672 403l-92 -430h-70l84 430h-324l-90 -430h-71l86 430h-160v74h174l63 326h-237v71h256l88 429h72l-84 -429h323l90 429h74l-90 -429h162v-73h-174l-66 -326h240v-72h-254zM352 801l-67 -324h323l70 324h-326z" />
    <glyph glyph-name="percent" unicode="%" horiz-adv-x="1280" 
d="M799 231q0 67 19 117.5t49 84t67.5 50.5t75.5 17q106 -13 161.5 -80t55.5 -189q0 -68 -16.5 -118.5t-45.5 -85t-68.5 -51.5t-84.5 -17q-19 0 -42.5 2.5t-48.5 15t-49.5 38.5t-46.5 73q-17 35 -21.5 68t-4.5 75zM324 -29h-107l741 1073l103 -12zM481 764
q0 -64 -17.5 -114.5t-47 -85.5t-67.5 -53.5t-79 -18.5q-44 0 -83 19.5t-68 55.5t-46.5 87t-17.5 114q0 49 12.5 96.5t38.5 85.5t66.5 62.5t97.5 27.5q48 0 86.5 -22.5t66.5 -61t43 -88.5t15 -104zM1114 229q-4 52 -5.5 89.5t-10 64.5t-28 45.5t-58.5 32.5q-39 -12 -57.5 -31
t-26.5 -47.5t-9.5 -67.5t-5.5 -90q0 -57 4.5 -95.5t12.5 -62.5t19.5 -37.5t25.5 -21.5l33 -8q46 0 76 55.5t30 173.5zM162 735q0 -39 6 -75t19.5 -63t35 -43.5t51.5 -16.5q25 3 43 23t29.5 51t17 70t5.5 81q0 45 -6.5 88t-18.5 77.5t-29 55.5t-39 21h-8q-22 0 -41.5 -24
t-33.5 -62.5t-22.5 -86.5t-8.5 -96z" />
    <glyph glyph-name="ampersand" unicode="&#x26;" horiz-adv-x="1141" 
d="M1063 25q-81 -29 -166 -29q-66 0 -127.5 19.5t-112.5 64.5q-30 -28 -67.5 -46.5t-78.5 -31t-84 -20t-83 -13.5q-50 0 -99.5 16.5t-88.5 52t-63.5 91.5t-24.5 135q0 43 20.5 84.5t52.5 79.5t71 72.5t77 64.5q-25 56 -37 110.5t-12 123.5q0 3 2 30t9.5 65.5t23 82t42 80.5
t66 61.5t96.5 24.5q45 0 81 -21.5t61 -56.5t38 -78.5t13 -87.5q0 -30 -6 -61.5t-22 -65.5t-42.5 -71.5t-66.5 -79.5l-93 -80q39 -94 93 -172.5t135 -147.5q46 46 82.5 95t66.5 101t55 107.5t48 114.5l98 -49q-15 -61 -44 -124t-65.5 -121.5t-78 -109.5t-82.5 -88
q37 -23 79.5 -35t85.5 -12q39 0 76.5 10.5t71.5 30.5v-116zM567 870q-1 28 -9 55t-21.5 47.5t-32 33t-39.5 12.5t-42.5 -10t-39 -29t-28.5 -46.5t-11 -62.5q2 -38 2 -63t3.5 -50.5t13 -58t30.5 -86.5q94 87 134 151t40 107zM578 147q-28 31 -62.5 76l-67.5 92t-60.5 91.5
t-39.5 76.5q-23 -24 -51.5 -48.5t-54 -51.5t-43 -58.5t-17.5 -68.5q0 -38 13 -70.5t36.5 -56.5t55 -37.5t69.5 -13.5q48 0 103.5 17t118.5 52z" />
    <glyph glyph-name="quotesingle" unicode="'" horiz-adv-x="313" 
d="M139 774l-24 145l-16.5 98l-10 60t-5 31.5t-2 12.5t-0.5 3q0 13 6.5 25.5t17 22t24 15t27.5 5.5t28 -5.5t24.5 -15t17 -21.5t6.5 -25q0 -1 -0.5 -3t-2 -12.5t-5 -32l-10 -60l-16.5 -98l-24 -145.5h-35z" />
    <glyph glyph-name="parenleft" unicode="(" horiz-adv-x="639" 
d="M598 -412q-127 61 -224 154.5t-163 208t-99.5 244.5t-33.5 264q0 133 34.5 266.5t101 251.5t163.5 211.5t221 146.5v-35q-55 -29 -107.5 -74.5t-97 -118t-77.5 -179t-50 -256.5l-10 -187q0 -145 13.5 -255.5t33.5 -190.5t43 -131.5t41 -77.5q40 -65 94.5 -117.5
t116.5 -95.5v-29v0z" />
    <glyph glyph-name="parenright" unicode=")" horiz-adv-x="639" 
d="M559 461q0 -134 -33 -266.5t-98.5 -249.5t-162 -210t-222.5 -147v29q64 30 115.5 79.5t92 125t71 180.5t51.5 246q4 42 6 71.5t3 51t1 36.5v27q0 78 -6.5 161.5t-22.5 167t-41.5 163.5t-63 150.5t-89 128.5t-117.5 98v32q129 -71 226 -163.5t161.5 -203.5t96.5 -238.5
t32 -268.5z" />
    <glyph glyph-name="asterisk" unicode="*" horiz-adv-x="1024" 
d="M864 737q-25 -28 -59 -28q-35 0 -51.5 12t-29 31.5l-30 45t-53.5 52.5l-117 88q0 -28 2 -57t5.5 -57l7 -53.5l6.5 -45.5q1 -4 5 -15.5t8.5 -27t8.5 -33t4 -33.5q0 -10 -4.5 -22t-15 -23t-27 -18.5t-39.5 -7.5q-67 12 -67 90v3q0 21 5.5 33l13.5 29t18.5 45.5t19.5 81.5
l19 111q-74 -45 -134 -96q-17 -15 -35 -36t-37 -40.5t-39.5 -33t-41.5 -13.5q-26 0 -45 11t-25 28l-6 39q0 27 14 44t34.5 26.5t43 13.5t39.5 4q15 0 27.5 1t34 8.5t57 23.5t94.5 45q-35 21 -68 37.5t-67 29t-70.5 22t-76.5 17.5q-20 2 -35.5 23.5t-20.5 52.5q0 12 5.5 25
t16 24.5t24.5 19t32 7.5q23 0 36.5 -4.5t23 -13.5t18 -22t22 -31.5t35 -41.5t56.5 -51l88 -70q0 50 -3.5 92.5t-10.5 80.5t-17 73t-23 70q-2 6 -3 10.5t-1 9.5q0 12 5.5 25t17 24t28.5 18t41 7q68 -12 68 -90q0 -20 -10.5 -43t-23.5 -58.5t-23.5 -88t-10.5 -130.5
q38 17 71.5 37.5t64.5 46.5q14 12 32.5 32.5t39 40t42.5 34t43 14.5q19 0 39.5 -10t28.5 -29l6 -37q-8 -43 -30 -60.5t-52 -24.5t-64 -9t-67 -14l-137 -50q39 -19 73.5 -34t67.5 -27t67.5 -21t73.5 -16q17 -3 35 -22t21 -54q0 -22 -19 -47z" />
    <glyph glyph-name="plus" unicode="+" horiz-adv-x="1155" 
d="M512 1049h131v-449h451v-131h-451v-455h-131v455h-451v131h451v449z" />
    <glyph glyph-name="comma" unicode="," horiz-adv-x="512" 
d="M164 -252q23 10 51.5 33t53.5 52t42 60.5t17 57.5q0 38 -25 41l-65 -8q-22 0 -41.5 6.5t-34.5 19.5t-24 31.5t-9 42.5q0 123 123 123q36 0 66 -15t51 -41.5t33 -63.5t12 -81q0 -42 -22 -88t-56 -88t-75 -75t-79 -48z" />
    <glyph glyph-name="hyphen" unicode="-" horiz-adv-x="682" 
d="M88 397v129h504v-129h-504z" />
    <glyph glyph-name="period" unicode="." horiz-adv-x="512" 
d="M256 207q50 0 84.5 -31.5t34.5 -87.5q0 -24 -9.5 -45.5t-26 -37.5t-38 -25t-45.5 -9t-45 9.5t-37 25.5t-25.5 37t-9.5 45t9 45.5t24.5 38t37 26t46.5 9.5z" />
    <glyph glyph-name="slash" unicode="/" horiz-adv-x="569" 
d="M-25 -221l517 1618h126l-516 -1618h-127z" />
    <glyph glyph-name="colon" unicode=":" horiz-adv-x="569" 
d="M283 207q49 0 83.5 -31.5t34.5 -87.5q0 -24 -9.5 -45.5t-26 -37.5t-37.5 -25t-45 -9t-45.5 9.5t-37 25.5t-25 37t-9.5 45t9 45.5t24.5 38t37 26t46.5 9.5zM283 938q49 0 83.5 -31.5t34.5 -87.5q0 -24 -9.5 -45.5t-26 -37.5t-37.5 -25t-45 -9t-45.5 9.5t-37 25.5t-25 37
t-9.5 45t9 45.5t24.5 38t37 26t46.5 9.5z" />
    <glyph glyph-name="semicolon" unicode=";" horiz-adv-x="569" 
d="M164 -252q22 10 51 35.5t55 57t44 64t18 56.5q0 31 -29 31l-65 -8q-22 0 -41.5 6.5t-34.5 19.5t-24 31.5t-9 42.5q0 123 123 123q39 0 69 -16.5t51 -44.5t31.5 -64.5t10.5 -75.5q0 -41 -21.5 -87t-55.5 -88t-75 -75t-80 -49zM371 825q0 -21 -9.5 -43t-25.5 -40t-37 -29
t-43 -11q-25 0 -47 10.5t-38.5 27.5t-26 39t-9.5 46q0 22 10 42t27 36t38.5 25.5t45.5 9.5q22 0 43 -8.5t37 -23.5t25.5 -35.5t9.5 -45.5z" />
    <glyph glyph-name="less" unicode="&#x3c;" horiz-adv-x="1155" 
d="M1098 0l-1043 479v111l1043 479v-127l-877 -407l877 -408v-127z" />
    <glyph glyph-name="equal" unicode="=" horiz-adv-x="1155" 
d="M1094 668h-1033v131h1033v-131zM1094 270h-1033v131h1033v-131z" />
    <glyph glyph-name="greater" unicode="&#x3e;" horiz-adv-x="1155" 
d="M932 535l-877 407v127l1043 -479v-111l-1043 -479v127z" />
    <glyph glyph-name="question" unicode="?" horiz-adv-x="764" 
d="M721 760q-2 -38 -24.5 -75.5t-55 -74.5t-70.5 -73l-71 -70l-22 -23.5t-25 -28.5t-20.5 -30t-8.5 -27v-8q0 -12 8.5 -28.5t16.5 -28.5l-29 -39q-29 11 -54.5 25.5t-44.5 34.5t-29.5 46.5t-10.5 61.5q0 36 17 66.5t43.5 57.5t58 50.5l61.5 46.5q48 38 75 85.5t27 107.5
q0 19 -9.5 38t-24.5 34t-34.5 24.5t-39.5 9.5q-14 0 -28.5 -6.5t-33.5 -26.5q49 -33 49 -80q0 -37 -32 -66.5t-97 -35.5q-21 0 -43 9t-39.5 27.5t-28.5 47.5t-11 68q0 32 20 67t56 63.5t85 47t107 18.5q60 0 109 -20t84 -53t54 -76.5t19 -91.5zM387 -33q-32 0 -55 11t-39 28
t-23.5 37.5t-7.5 40.5q0 22 7 42t21.5 35t35.5 23.5t49 8.5q29 0 51.5 -10t37.5 -26.5t22.5 -38t7.5 -44.5q0 -44 -26 -75.5t-81 -31.5z" />
    <glyph glyph-name="at" unicode="@" horiz-adv-x="1548" 
d="M860 242q-51 44 -97.5 67t-89.5 34.5t-83.5 16.5t-79.5 13l-100 245q60 -37 119 -59t128 -22q12 0 40 2.5t63 9.5t72.5 19t69 31.5t51.5 46.5t20 65q0 19 -8 42.5t-27 44t-50.5 34.5t-78.5 14l-37 -6q-2 -24 -13.5 -53.5t-33 -55.5t-53 -43.5t-74.5 -17.5q-22 0 -42 7
t-35 20.5t-23.5 33t-8.5 45.5q0 43 27 75.5t67.5 54.5t89 33.5t90.5 11.5q48 0 99 -12t93 -37.5t69 -64.5t27 -94q0 -56 -13.5 -106t-43.5 -93t-78.5 -78t-118.5 -60q38 -27 78.5 -61.5t87.5 -67t103 -58t126 -35.5q34 4 65 27.5t56.5 60t46 81.5t34.5 92t21.5 91.5
t7.5 80.5q0 72 -20.5 140t-58 128t-89 110t-114.5 86t-135 56t-149 20q-103 -8 -194 -41.5t-167 -86.5t-135.5 -123t-101 -152t-63.5 -173t-22 -186q0 -131 44.5 -242t125.5 -192t195.5 -126.5t255.5 -45.5q66 0 116 3.5t97.5 15.5t100 35.5t124.5 64.5l33 -68
q-112 -56 -231 -90.5t-244 -34.5q-87 0 -179 20.5t-180 62t-166.5 103.5t-137.5 145.5t-93.5 188t-34.5 230.5q0 109 37.5 208t101.5 184t150 154.5t183.5 118t201 75t202.5 26.5q111 0 199.5 -28.5t157 -77t118 -111.5t81 -132t46.5 -138.5t15 -131.5q0 -90 -19.5 -161
t-54.5 -135q-12 -18 -32.5 -53t-51 -69t-73.5 -59.5t-101 -25.5q-19 0 -34.5 1t-31 4.5t-34.5 12t-46 23t-64.5 37z" />
    <glyph glyph-name="bracketleft" unicode="[" horiz-adv-x="457" 
d="M149 -75v1274h222v-69h-119v-1136h119v-69h-222z" />
    <glyph glyph-name="backslash" unicode="\" horiz-adv-x="569" 
d="M492 -221l-517 1618h127l516 -1618h-126z" />
    <glyph glyph-name="bracketright" unicode="]" horiz-adv-x="503" 
d="M129 -77v69h115v1140h-115v69h218v-1278h-218z" />
    <glyph glyph-name="underscore" unicode="_" horiz-adv-x="1182" 
d="M6 -2v103h1176v-103h-1176z" />
    <glyph glyph-name="braceleft" unicode="{" horiz-adv-x="983" 
d="M698 1397q-93 -16 -131.5 -81.5t-38.5 -170.5v-357q0 -61 -5.5 -103.5t-23 -72.5t-50.5 -50t-87 -36q47 -11 79 -30t51.5 -51.5t27.5 -80t8 -116.5v-336q0 -55 8.5 -97t28 -72t52.5 -50t81 -31q-95 0 -156 13.5t-97 48t-50 93t-14 148.5v326q0 57 -5.5 95.5t-22 65
t-47.5 43.5t-81 31q49 13 79.5 32.5t47.5 47.5t23 65.5t6 86.5v358q0 76 14 129t49.5 87t97 49.5t156.5 15.5z" />
    <glyph glyph-name="bar" unicode="|" horiz-adv-x="318" 
d="M109 -426v2011h103v-2011h-103z" />
    <glyph glyph-name="braceright" unicode="}" horiz-adv-x="983" 
d="M758 526q-94 -23 -127 -75q-29 -53 -29 -160v-326q0 -182 -69 -242q-35 -30 -96 -45.5t-152 -15.5q17 3 35 9t36 16q51 26 75 84.5t24 140.5v336q0 63 6 108.5t20 71.5q35 71 140 98q-97 26 -134 86q-17 31 -24.5 75t-7.5 101v357q0 54 -8 95.5t-27.5 72t-52.5 51
t-82 33.5h59q135 0 193 -58q65 -65 65 -223v-358q0 -50 6 -86.5t23.5 -64t48 -47t78.5 -34.5z" />
    <glyph glyph-name="quoteleft" unicode="&#x2018;" horiz-adv-x="479" 
d="M395 971q0 -44 -31.5 -74.5t-91.5 -30.5q-28 0 -56 13t-51 37t-37.5 58.5t-14.5 76.5v4q0 54 21 103t62 94l2 2l19.5 19t29.5 23.5t44 26t63 27.5v-39q-40 -23 -69.5 -44.5t-49 -44.5t-29 -49t-9.5 -57q0 -35 13.5 -49t22.5 -14l68 18q15 0 32 -7.5t30.5 -20.5
t22.5 -31.5t9 -40.5z" />
    <glyph glyph-name="quoteright" unicode="&#x2019;" horiz-adv-x="479" 
d="M406 1116q0 -96 -61.5 -176t-180.5 -125v39q50 34 81 60.5t48 49t23 43t6 44.5t-11 42.5t-28 18.5q-14 -9 -29 -12.5t-31 -3.5q-19 0 -37 6.5t-32.5 19.5t-23 31t-9.5 41v2q0 24 10.5 43.5t28 34t39 22t43.5 7.5q28 0 57 -14.5t53 -39.5t39 -59.5t15 -73.5z" />
    <glyph glyph-name="quotedblleft" unicode="&#x201c;" horiz-adv-x="863" 
d="M495 1052q0 96 61.5 176t180.5 125v-39q-50 -35 -81 -61t-48 -48.5t-23 -43t-6 -44.5t11 -42.5t28 -18.5q14 9 29 12.5t31 3.5q19 0 37 -6.5t32.5 -19.5t23 -31t9.5 -41v-2q0 -24 -11 -43.5t-28 -34t-38.5 -22t-43.5 -7.5q-28 0 -57 14.5t-53 39.5t-39 59.5t-15 73.5z
M137 1052q0 96 61.5 176t180.5 125v-39q-50 -35 -81 -61t-48 -48.5t-23 -43t-6 -44.5t11 -42.5t28 -18.5q14 9 29 12.5t31 3.5q19 0 37 -6.5t32.5 -19.5t23 -31t9.5 -41v-2q0 -24 -11 -43.5t-28 -34t-38.5 -22t-43.5 -7.5q-28 0 -57 14.5t-53 39.5t-39 59.5t-15 73.5z" />
    <glyph glyph-name="quotedblright" unicode="&#x201d;" horiz-adv-x="883" 
d="M406 1116q0 -96 -61.5 -176t-180.5 -125v39q50 34 81 60.5t48 49t23 43t6 44.5t-11 42.5t-28 18.5q-14 -9 -29 -12.5t-31 -3.5q-19 0 -37 6.5t-32.5 19.5t-23 31t-9.5 41v2q0 24 10.5 43.5t28 34t39 22t43.5 7.5q28 0 57 -14.5t53 -39.5t39 -59.5t15 -73.5zM764 1116
q0 -96 -61.5 -176t-180.5 -125v39q50 34 81 60.5t48 49t23 43t6 44.5t-11 42.5t-28 18.5q-14 -9 -29 -12.5t-31 -3.5q-19 0 -37 6.5t-32.5 19.5t-23 31t-9.5 41v2q0 24 10.5 43.5t28 34t39 22t43.5 7.5q28 0 57 -14.5t53 -39.5t39 -59.5t15 -73.5z" />
    <glyph glyph-name="endash" unicode="&#x2013;" horiz-adv-x="821" 
d="M96 537v103h635v-103h-635z" />
    <glyph glyph-name="emdash" unicode="&#x2014;" horiz-adv-x="1120" 
d="M105 537v103h885v-103h-885z" />
    <glyph glyph-name="divide" unicode="&#xf7;" horiz-adv-x="1075" 
d="M662 801q0 -56 -33 -93.5t-90 -37.5q-27 0 -51 10.5t-41.5 28t-28 41.5t-10.5 51q0 24 10 46.5t27 40t41 28t53 10.5q27 0 49.5 -9.5t39 -26t25.5 -39.5t9 -50zM80 461v80h921v-80h-921zM662 199q0 -28 -8.5 -52t-24.5 -42t-39 -28.5t-51 -10.5q-27 0 -51 10.5
t-41.5 28.5t-28 42t-10.5 52q0 24 10 47t27.5 40t41.5 27.5t52 10.5q25 0 47.5 -9.5t39 -26.5t26.5 -39.5t10 -49.5zM602 793q0 34 -10.5 53.5t-52.5 27.5q-18 0 -30 -7.5t-19.5 -19t-11.5 -26t-5 -28.5q2 -32 17 -48.5t49 -21.5q25 0 42 14t21 56zM602 197q0 69 -70 69
q-16 0 -28 -9t-19.5 -22.5t-11 -29t-3.5 -28.5q0 -11 7 -21t18 -17.5t24.5 -12.5t27.5 -5q11 0 21 3t17.5 11t12 23t4.5 39z" />
    <glyph glyph-name="ZWNJ" unicode="&#x200c;" horiz-adv-x="0" 
d="M-37 1583h74v-1857h-74v1857z" />
    <glyph glyph-name="ZWJ" unicode="&#x200d;" horiz-adv-x="0" 
d="M37 1456v-1730h-74v1730l-133 -135l-49 47l172 170l-172 168l49 49l170 -172l170 172l49 -49l-172 -168l172 -170l-49 -47z" />
    <glyph glyph-name="dottedcircle" unicode="&#x25cc;" horiz-adv-x="1030" 
d="M219 145q-49 34 -90 74t-70 88l105 72q25 -43 57 -74.5t72 -54.5l-74 -105v0zM618 72q-49 -13 -110 -13t-117 13l25 121q25 -5 47 -9t45 -4t44.5 4t43.5 9l22 -121v0zM2 459q-6 28 -8 55.5t-2 58.5q0 26 2 55.5t8 55.5l121 -20q-5 -22 -6.5 -43t-1.5 -41q0 -25 2.5 -49
l5.5 -52l-121 -20v0zM293 897q-81 -53 -129 -131l-105 72q31 51 71.5 89.5t88.5 67.5l74 -98v0zM950 307q-59 -95 -159 -162l-70 105q40 23 72.5 54.5t58.5 74.5l98 -72v0zM1024 573q0 -29 -4 -57t-10 -57l-121 20q5 22 7.5 45t2.5 47q0 25 -2.5 48t-7.5 45l121 20
q6 -28 10 -56.5t4 -54.5zM596 952q-44 9 -88 9q-23 0 -45 -2t-47 -7l-25 119q29 8 57.5 11t59.5 3q29 0 56.5 -3t53.5 -11l-22 -119v0zM852 766q-52 79 -131 131l70 98q51 -29 89.5 -68.5t69.5 -88.5l-98 -72v0z" />
    <glyph glyph-name="danda" unicode="&#x9f7;" horiz-adv-x="653" 
d="M383 0l-43 33v987l104 -53v-1004z" />
    <glyph glyph-name="doubledanda" unicode="&#x965;" horiz-adv-x="915" 
d="M385 0l-45 33v987l103 -53v-1004zM688 0l-43 33v987l103 -53v-1004z" />
    <glyph glyph-name="bn_candrabindu" unicode="&#x981;" 
d="M-354 1495q-26 0 -46 21t-20 47q0 14 5.5 27.5t15.5 24t23.5 17t29.5 6.5q26 0 45.5 -16t19.5 -41q0 -11 -3 -25.5t-11 -28t-22 -23t-37 -9.5zM-141 1536q0 -45 -15 -86t-41.5 -73t-63 -51t-79.5 -19q-48 0 -94 27.5t-85 71t-68.5 98t-43.5 108.5l25 2q25 0 33 -6
q13 -38 34 -71.5t49.5 -59t63.5 -41t76 -17.5q34 6 56.5 12t41 22.5t36 49t40.5 90.5q11 0 17.5 -4.5t13.5 -13.5z" />
    <glyph glyph-name="bn_anusvara" unicode="&#x982;" horiz-adv-x="616" 
d="M297 1087q45 0 85 -20t70 -53.5t48 -76.5t18 -89q0 -37 -14.5 -77t-40 -73t-61.5 -54t-78 -21q-45 0 -86 24t-72.5 62t-50.5 85t-19 93q0 41 16 77.5t43.5 63.5t64 43t77.5 16zM580 0q-42 41 -98 87.5t-116.5 92l-121 87l-111.5 73.5v231q81 -63 152 -130t138.5 -141.5
l135 -156.5l141.5 -174v-88zM350 766q44 31 63 57.5t19 50.5q0 15 -10 28t-27 22.5t-38.5 14.5t-43.5 5q-38 0 -64 -13t-42 -34t-23.5 -48.5t-7.5 -57.5q0 -76 60 -76q23 0 51 12.5t63 38.5z" />
    <glyph glyph-name="bn_visarga" unicode="&#x983;" horiz-adv-x="641" 
d="M524 694q-32 -32 -63.5 -48.5t-71.5 -16.5q-45 0 -86.5 22.5t-73 59.5t-50.5 84t-19 96q0 42 18 79.5t48 65.5t68.5 44t80.5 16q43 0 82.5 -18.5t70.5 -50t49.5 -73.5t18.5 -88q0 -94 -72 -172zM516 96q-29 -32 -61.5 -46t-69.5 -19q-42 0 -82 23t-71 60t-49.5 84.5
t-18.5 96.5q0 42 16 80.5t44.5 68t67.5 47t85 17.5q43 0 81.5 -19t68 -51.5t46.5 -74.5t17 -87q0 -48 -16 -92t-58 -88zM422 766q84 60 84 111q0 18 -10.5 32t-28 24t-40 15.5t-46.5 5.5q-35 0 -60.5 -12t-41.5 -33t-23.5 -49t-7.5 -59q0 -35 14 -55t49 -25q23 0 51 11
t60 34zM430 164q37 31 54 61t22 56q0 21 -12.5 39t-33.5 30.5t-47 19.5t-53 7q-48 0 -79 -35.5t-31 -114.5q0 -48 18 -80t56 -32q22 0 47 10l59 39v0z" />
    <glyph glyph-name="bn_a" unicode="&#x985;" horiz-adv-x="1217" 
d="M1072 1040v-1048q-19 18 -30.5 39.5t-19.5 45t-14.5 48.5t-14.5 49l-14 41q-21 28 -38 56.5l-35 56.5t-38.5 54t-48.5 48q-20 -39 -49 -68.5t-64 -49.5t-74 -30t-79 -10q-69 0 -130.5 30t-114.5 81.5t-97.5 121.5t-81 149.5t-65 164.5t-48.5 168l64 -26
q15 -59 37.5 -119.5t53.5 -117.5t71 -107t89.5 -87.5t108.5 -59t129 -21.5q44 0 76.5 12.5t53.5 35t31.5 53t10.5 66.5q0 38 -8.5 73.5t-23 63t-33 44t-39.5 16.5q-31 -48 -73 -75t-87 -27q-27 0 -52 10t-45 27.5t-32 41.5t-12 52q0 26 9 51.5t25.5 46t40 33t52.5 12.5
q84 0 154.5 -31t122.5 -86t81 -130.5t29 -164.5l119 -206v673h-1009v103h1297v-103h-185z" />
    <glyph glyph-name="bn_aa" unicode="&#x986;" horiz-adv-x="1591" 
d="M1076 1040v-1048q-24 26 -39 58t-24.5 63.5t-16 58.5t-13.5 43l-71 105l-43.5 61t-26.5 31.5l-19 17.5q-19 -38 -47.5 -67t-63.5 -48.5t-74 -29t-79 -9.5q-73 0 -135.5 30t-115 81t-96.5 120.5t-79.5 148.5t-63.5 163.5t-49 167.5l64 -26q15 -59 37.5 -119.5t53.5 -117.5
t71 -107t89.5 -87.5t108.5 -59t129 -21.5q44 0 76.5 12.5t53.5 35t31.5 53t10.5 66.5q0 38 -8.5 73.5t-23 63t-33 44t-39.5 16.5q-35 -46 -75 -74t-85 -28q-24 0 -49.5 9.5t-45.5 26.5t-33 41.5t-13 53.5q0 26 9 51.5t25.5 46t40 33t52.5 12.5q85 0 156 -31t122.5 -86.5
t80 -131t28.5 -163.5l119 -206v673h-1013v103h1088l3 1q15 3 28 3q61 0 105.5 -13t78 -44t58.5 -82.5t49 -128.5l-33 233q-3 67 -4.5 106.5t-2.5 61.5t-2 31.5t-2 15.5l40 -33q5 -42 17 -82t44 -69h201v-103h-196v-1075l-103 107v768q0 71 -38.5 122.5t-112.5 77.5h-102z
" />
    <glyph glyph-name="bn_i" unicode="&#x987;" horiz-adv-x="961" 
d="M442 1040q3 -24 16 -41.5t31 -29.5t39.5 -19.5t42.5 -11.5q40 -9 78.5 -38.5t69 -71t49 -90t18.5 -93.5q-4 -62 -28 -110.5t-64 -86t-93.5 -64t-115.5 -44.5l129.5 -91t106 -80.5t96.5 -82t101 -96.5l32 -140q-73 80 -164 153.5t-192.5 134.5t-209.5 105.5t-214 65.5
l-123 256q59 -37 135 -58.5t152 -21.5q35 0 85.5 8.5t98.5 31t85.5 61.5t47.5 100q-2 31 -15.5 59t-33.5 49t-45 33.5t-51 12.5q-21 0 -43 -11q0 -40 -18.5 -74t-47.5 -59t-64 -39t-69 -14q-38 0 -70.5 19t-41.5 63q1 46 19.5 83.5t49.5 67t71.5 52t86.5 37.5q-5 2 -9 15.5
t-18 27.5l-37 32h-345v103h601l68 6q7 1 19 7t22.5 15t18.5 21t8 25q0 18 -19 30.5t-45 19.5t-52.5 10t-41.5 3q-13 2 -26 2h-25l-236 -14q-50 0 -105 13.5t-101.5 41.5t-76.5 70.5t-30 101.5q0 18 3.5 36.5t12.5 34.5t25.5 26t42.5 10q6 0 12 -0.5t12 -2.5
q-23 -25 -37.5 -51.5t-14.5 -50.5q0 -17 9 -32t30 -26t54.5 -17.5t83.5 -6.5q9 0 83 3t227 12q64 0 118 -20.5t93 -56t61 -83t22 -101.5l-2 -26h269v-103h-611z" />
    <glyph glyph-name="bn_ii" unicode="&#x988;" horiz-adv-x="1051" 
d="M340 1040q-8 -14 -12 -23.5t-4 -19.5q0 -15 9 -24.5t23 -16.5t31.5 -12.5t34.5 -11.5q62 -35 101.5 -86t39.5 -119v-13t-2 -14q51 72 125 132t156 98l168 -111q-57 -47 -102 -106.5t-76 -127t-47.5 -141.5t-16.5 -149q0 -48 5 -86.5t15.5 -74t28 -71.5t41.5 -79l-86 43
q-37 93 -59.5 188.5t-22.5 192.5q0 85 19.5 166t64.5 161q-35 -36 -68.5 -78.5l-67.5 -86.5l-69 -87.5t-73 -80.5t-80 -65.5t-90 -43.5q-40 0 -74 17t-59.5 45.5t-41.5 67t-20 81.5q1 9 6 16t12 13t14.5 11.5t12.5 12.5q17 -62 41.5 -87.5t52.5 -25.5q21 0 57.5 22t72 57
t61.5 78t26 85q0 26 -6 51t-17 44t-27.5 30.5t-37.5 11.5q-22 0 -55 -22q0 -62 -30 -99.5t-81 -37.5q-30 0 -55 9.5t-43 27t-28.5 42t-10.5 54.5v6q0 31 14.5 58t37.5 48t51 34.5t55 17.5l-47 79h-239v103h780q53 16 53 76q0 13 -10 22t-26.5 15t-37 9t-41.5 3l-162.5 -15.5
t-163.5 -13.5h-63q-11 0 -34 3.5t-51.5 13t-59 25.5t-56.5 41t-44 60t-21 82q0 54 26 92l37 29l35 -41q-23 -40 -23 -71q0 -25 13.5 -41t36 -25.5t51.5 -13.5t61 -4q45 0 81.5 3t68 7t61.5 7t62 3q70 0 131 -14.5t106.5 -45t72 -78t26.5 -112.5v-16h208v-103h-745z" />
    <glyph glyph-name="bn_u" unicode="&#x989;" horiz-adv-x="1096" 
d="M525 1040v-303q1 -14 6 -28.5t14 -26.5t21.5 -19.5t29.5 -7.5q10 0 24.5 14t31.5 35l35 45.5t36 45.5t33.5 35t27.5 14q33 0 60 -17.5t48.5 -46t37.5 -65t26.5 -73.5t15.5 -71.5t5 -60.5q0 -75 -22.5 -144.5t-69 -122t-117 -84t-166.5 -31.5q-101 0 -176 38t-129.5 103
t-91 150.5t-60 180t-37.5 192.5t-24 187l61 -33q6 -60 21 -130.5t40 -142t61 -138.5t85.5 -118.5t113 -82.5t142.5 -31q58 0 110 21.5t90 57t60.5 81.5t22.5 96q0 34 -10.5 67.5t-34.5 65.5q-15 -30 -46.5 -66t-71 -66.5t-84.5 -51.5t-87 -21q-32 0 -57 14t-42 37t-26.5 53
t-9.5 62v387h-452v103h732l80 33l25 20q0 21 -15.5 37t-43 27t-65 16.5t-81.5 5.5q-60 0 -121.5 -7t-120.5 -7q-52 0 -105.5 15t-97 44.5t-71 72t-27.5 97.5q0 22 5.5 43t13 37t16.5 25.5t15 9.5l49 -21q-19 -12 -27.5 -28.5t-13.5 -40.5q0 -33 18.5 -54.5t47.5 -34
t65 -17.5t71 -5l287 16q55 0 108 -18.5t94 -51.5t66 -79.5t25 -103.5v-16q0 -7 -2 -15h250v-103h-622z" />
    <glyph glyph-name="bn_uu" unicode="&#x98a;" horiz-adv-x="1149" 
d="M633 1040v-368q0 -22 5 -32.5t13 -10.5q45 12 78 37.5t61.5 57t55 65.5t57.5 65q48 -27 82 -63t56.5 -77.5t33 -87.5t10.5 -94q0 -77 -27.5 -152.5t-80 -134.5t-129 -95.5t-174.5 -36.5q-99 10 -180.5 48.5t-146 97.5t-112.5 135.5t-81 162.5t-52 178.5t-24 184.5l-2 34
l57 -49q12 -84 37.5 -170.5t64 -165.5t89.5 -146.5t116 -115.5q-52 67 -89 145t-61.5 161t-37 169t-16.5 170l59 -43q5 -59 17 -125.5t33 -131.5t52.5 -126t75.5 -109t101.5 -79.5t130.5 -38.5q54 0 107.5 21.5t96 57.5t69 83.5t26.5 99.5q0 67 -48 127q-16 -25 -46.5 -59.5
t-68 -65.5t-79.5 -52.5t-82 -21.5q-35 0 -63 17t-47.5 43.5t-29.5 58.5t-10 62v370h-560v103h841q43 0 49 14l4 31q0 19 -12 34t-31.5 25t-43.5 15.5t-48 5.5h-35q-37 0 -72 -3.5l-70.5 -7l-71.5 -7t-74 -3.5h-29q-217 0 -326.5 56.5t-109.5 181.5q0 31 9.5 59.5t31.5 46.5
q18 -12 33.5 -28.5t23.5 -36.5q-14 -20 -20.5 -35.5t-6.5 -26.5q0 -15 8.5 -29.5t30.5 -26t59 -18t93 -6.5q81 0 163.5 9.5t163.5 15.5h35q69 0 134 -13t116.5 -44t85.5 -82t41 -127h262v-103h-571z" />
    <glyph glyph-name="bn_ri" unicode="&#x98b;" horiz-adv-x="1239" 
d="M1043 1040v-827l-30 39q-16 48 -34.5 97t-45 91.5t-64 76.5t-90.5 52v-493l-35 37q-20 85 -66.5 159.5t-111.5 132t-145.5 93.5t-168.5 45l-107 153q51 46 107.5 84t115.5 71t120.5 62.5l121.5 59.5q-11 15 -27.5 30t-34.5 27t-36.5 19.5t-34.5 7.5q-19 -27 -51 -52
t-70 -43.5t-79.5 -30t-79.5 -11.5q-75 0 -119.5 38.5t-44.5 106.5q0 22 6.5 43t19.5 37t33.5 25.5t48.5 9.5q41 0 63.5 -30t22.5 -71q136 12 213 142q79 -39 135 -91.5t101 -132.5v353l103 -103v-549q50 -29 92.5 -69t68.5 -92v804l103 -75v-123h236v-103h-236zM676 840
q-38 -12 -73.5 -30.5t-71.5 -42t-74.5 -52l-83.5 -62.5q94 -49 168.5 -114.5t134.5 -153.5v455z" />
    <glyph glyph-name="bn_li" unicode="&#x98c;" horiz-adv-x="987" 
d="M657 242q30 20 61.5 49.5t57 65t42 74.5t16.5 77q0 48 -27 87.5t-86 68.5q-54 26 -117 45.5l-127.5 38.5t-126 41t-111 53.5t-84 76t-44.5 109.5q0 50 40.5 96t114.5 80l35 -51q-48 -9 -69 -33t-21 -53q0 -34 25.5 -67t68.5 -50q68 -27 142.5 -50t147 -49t137.5 -58.5
t114.5 -78.5t78.5 -109t29 -150q0 -49 -22 -97.5t-58.5 -92.5t-84.5 -82t-101 -66t-107 -44t-102 -16q35 47 55.5 109t20.5 125q0 40 -9 77.5t-29.5 68.5t-52.5 53t-77 30q-22 0 -42.5 -10t-39.5 -33q0 -18 13.5 -38t58.5 -29q20 0 34.5 -9t24.5 -23.5t14.5 -32t4.5 -34.5
q0 -20 -6 -39.5t-17.5 -34.5t-29 -24.5t-40.5 -9.5q-35 0 -67 17.5t-56 46t-38.5 64.5t-14.5 72q0 42 14.5 80.5t43 68.5t70.5 48t96 18q109 0 190 -94q38 -43 50.5 -92t12.5 -100q0 -23 -2 -45z" />
    <glyph glyph-name="bn_e" unicode="&#x98f;" horiz-adv-x="1188" 
d="M963 43q-10 6 -19 45q-12 54 -30 87t-44 51.5t-60 25t-77 6.5q-33 0 -73 -5t-82.5 -11.5t-85 -11.5t-80.5 -5q-72 0 -132 27t-103 76t-67 117.5t-24 150.5q0 72 21.5 142.5t64.5 127.5l41 -43q-26 -42 -41.5 -95t-15.5 -105q0 -53 15.5 -98t48.5 -78t85 -51.5t125 -18.5
q19 0 38 2.5l42.5 5.5t54.5 5.5t74 2.5q45 0 81.5 -7.5t68 -22.5t60.5 -37t60 -50v746q0 19 -30 22q-53 -14 -102.5 -38t-90.5 -59t-70.5 -81.5t-42.5 -105.5q20 8 43 8q44 0 71.5 -33.5t27.5 -89.5q0 -24 -11 -45t-30 -36.5t-44.5 -24.5t-54.5 -9q-41 0 -72.5 14t-53 37.5
t-32.5 53t-11 61.5q0 52 17.5 106t48.5 104t73 94.5t90.5 78t101 53t105.5 21.5q26 -2 54 -18t53 -40t42.5 -51.5t22.5 -50.5v-999z" />
    <glyph glyph-name="bn_ai" unicode="&#x990;" horiz-adv-x="1239" 
d="M1178 1034q0 -150 -134 -233q-11 -8 -23 -23t-26 -35v-751l-47 49q-7 41 -18.5 78t-32 64.5t-53 44t-80.5 16.5l-307 -23q-78 6 -145.5 23.5t-116.5 58t-77 107.5t-28 172q0 72 19.5 143.5t64.5 128.5l37 -47q-22 -45 -36.5 -95.5t-14.5 -103.5q0 -46 16.5 -88t52 -74.5
t92.5 -51.5t138 -19q35 0 71.5 6t73.5 6q53 0 102.5 -8t88.5 -27l100 -80v738q0 19 -31 22q-54 -11 -100 -37.5t-84 -65t-67.5 -85t-49.5 -96.5q11 5 21.5 7.5t21.5 2.5q20 0 38 -8t32 -23t22.5 -36.5t8.5 -47.5q-5 -59 -44.5 -91t-99.5 -32q-80 0 -124 53.5t-44 149.5
q13 81 51.5 152t96 126.5t131 92t157.5 47.5q44 -10 73.5 -31.5t49 -50t30 -62t15.5 -67.5h11q22 0 39 8.5t29 23t18 33t6 39.5q0 29 -10.5 55.5t-37 51t-71 47.5t-113.5 45l-227 74.5t-90 31.5q-164 81 -164 215q2 28 13 55.5t27.5 52.5t37 45t41.5 32l55 -60
q-21 -8 -39.5 -16t-32.5 -20.5t-23 -30.5t-13 -45q0 -72 340 -172q114 -34 188 -69t117 -75t59.5 -87t16.5 -105z" />
    <glyph glyph-name="bn_o" unicode="&#x993;" horiz-adv-x="1106" 
d="M752 1098q60 0 107 -21t79.5 -56t50 -81t17.5 -96q0 -62 -21.5 -121t-58.5 -102q46 -45 68 -100t22 -113q0 -62 -22 -115t-62 -92t-95 -61.5t-122 -22.5q-99 0 -180 43t-146.5 114.5t-117 163.5t-92.5 191t-72 197.5l-56 181.5l70 -37q29 -81 63 -166t78.5 -166.5
t103 -155t136.5 -129.5q23 -15 46.5 -28.5t49 -24t54.5 -16.5t63 -6q37 0 76.5 11t71.5 34t52.5 57.5t20.5 81.5q0 32 -16.5 58.5t-45.5 41.5q-23 -20 -46 -30.5t-48 -10.5q-32 0 -54.5 10t-37 27.5t-22.5 41t-11 50.5q0 27 11.5 50t30 39.5t42.5 26t49 9.5q19 0 36 -5
t34 -17q37 18 55.5 50t18.5 83q0 29 -12.5 49.5t-33 33.5t-46.5 19t-54 6q-38 0 -77.5 -12t-76 -32.5t-68 -48t-54.5 -58.5q12 -6 23 -19t20 -31t14.5 -38t5.5 -39q0 -45 -30.5 -65.5t-73.5 -20.5q-69 0 -106 42t-37 113q0 51 20.5 94t55 78t79 61t92 43.5t94 26.5t85.5 9z
" />
    <glyph glyph-name="bn_au" unicode="&#x994;" horiz-adv-x="1270" 
d="M1200 920q0 -92 -88 -199l-115 -117q31 -45 50.5 -105t19.5 -120q0 -66 -27.5 -115t-71.5 -81t-99 -48t-111 -16q-100 0 -182 42.5t-148 113.5t-117.5 162.5t-92 189t-71 194.5t-53.5 178l64 -32l55.5 -141.5t69 -151t87 -145t108 -123t131.5 -85.5t159 -32q40 0 78 10
t67.5 31t47.5 53.5t18 77.5q0 9 -2 18.5t-8.5 22t-18 28.5t-30.5 37q-20 -26 -43.5 -35t-63.5 -12q-51 0 -83 33t-32 98q0 27 11 48.5t29.5 37t42.5 23.5t50 8q39 0 72 -18q37 15 56.5 51.5t19.5 75.5q0 21 -6.5 41t-21 35.5t-37.5 24.5t-56 9q-46 0 -92 -8t-86.5 -26
t-74 -47t-54.5 -70q18 -19 29.5 -33t17.5 -25t8 -21t2 -20q0 -55 -31.5 -83.5t-74.5 -28.5q-25 0 -49.5 7.5t-44 26.5t-31.5 49.5t-12 77.5q0 76 41 133.5t105 96.5t143 58.5t155 19.5q47 0 87.5 -19t70.5 -50.5t47.5 -72.5t17.5 -84q0 -37 -14.5 -73.5t-48.5 -67.5
q29 18 57 46t49.5 61t35 69t13.5 70q0 52 -25 87.5t-65 59t-89.5 37.5t-98.5 25q-120 26 -205 59.5t-139.5 74.5t-79.5 89.5t-25 103.5q0 25 13 51.5t33 50t44.5 42t47.5 28.5q32 -26 55 -63q-48 -9 -68 -31.5t-20 -50.5q0 -34 26 -68.5t66 -54.5l203 -65
q94 -30 167.5 -62.5t124.5 -78.5t79.5 -110t33.5 -157z" />
    <glyph glyph-name="bn_ka" unicode="&#x995;" horiz-adv-x="1169" 
d="M713 1040v-77q72 0 141 -35t122.5 -93t86.5 -133t33 -155q0 -41 -13.5 -75.5t-37 -60t-55 -39.5t-66.5 -14q-23 0 -45.5 10.5t-41.5 29t-30.5 44t-11.5 54.5q0 24 11 42.5t28.5 32t40 20.5t45.5 7q27 0 52.5 -12.5t41.5 -38.5q2 6 2 13v13q0 51 -24.5 96.5t-64.5 80
t-89.5 55t-100.5 20.5h-12t-12 -2v-817l-39 37q-32 85 -74.5 159.5t-101.5 132.5t-137.5 95.5t-182.5 48.5l-141 174q135 100 275 181.5t298 126.5v79h-642v103h1224v-103h-479zM610 821q-104 -35 -191.5 -88t-174.5 -117q59 -26 105 -51t87 -61t82.5 -88t91.5 -131v536z
" />
    <glyph glyph-name="bn_kha" unicode="&#x996;" horiz-adv-x="995" 
d="M851 1040v-1034q-21 19 -35 43t-26 49.5t-23 52t-26 50.5q-32 64 -84 112t-114.5 82t-131 54.5t-132.5 31.5l-170 211q39 -6 81 -6q54 0 118 13.5t119.5 39.5t92.5 63t37 85q0 26 -13 50.5t-38 41.5q-59 -71 -142.5 -111t-183.5 -51q-29 0 -56 9.5t-47.5 27.5t-33 44
t-12.5 60q0 48 30 77t76 32q51 0 75 -22t24 -70q37 1 65.5 19t53 42.5t48.5 51.5t52 47l69 -59t64.5 -63.5t50.5 -78.5t27 -103q0 -36 -20.5 -75t-53 -74t-73 -61.5t-81.5 -36.5q94 -45 174 -117.5t136 -163.5v1026l59 -37q4 -18 4 -40t2.5 -43.5t11 -39.5t29.5 -26h170
v-103h-173z" />
    <glyph glyph-name="bn_ga" unicode="&#x997;" horiz-adv-x="993" 
d="M848 1041v-1078l-103 92v609q-11 63 -40 120.5t-73 103.5t-101.5 78t-124.5 44q-47 -6 -80 -14.5t-58.5 -25t-46 -43.5t-41.5 -71q29 6 59.5 11t59.5 5q44 0 79.5 -13.5t61 -35t39 -50t13.5 -58.5q0 -42 -19 -87.5t-47.5 -90.5t-61 -87l-59.5 -77l-119 133q29 24 66 59
t69.5 71t55 67.5t22.5 46.5q0 18 -13.5 34.5t-41.5 16.5q-12 0 -40 -13.5l-59 -29.5l-59 -29.5t-41 -13.5q-26 4 -47.5 18t-36.5 34t-23.5 44t-8.5 49q4 51 27.5 100.5t63 87.5t93 61.5t117.5 23.5q106 0 181 -35t127.5 -90.5t86.5 -124.5t57 -138l-12 75.5t-13 87t-10 82.5
t-4 63v284l62 -59q-2 -8 -3 -18t-1 -19q0 -28 11 -55.5t36 -42.5h186v-102h-186z" />
    <glyph glyph-name="bn_gha" unicode="&#x998;" horiz-adv-x="965" 
d="M810 1040v-1044l-48 49l-41 107q-25 54 -68 101.5t-97 83t-116 56.5t-123 21h-21q-9 0 -20 -2l-135 139l50.5 52.5l53.5 56l54 53t53 43.5q-38 -19 -80 -19q-37 0 -73.5 15.5t-65.5 42t-47 61t-18 72.5q0 29 8 57.5t22 54.5h-124v103h1027v-103h-191zM707 1040h-363
q-21 0 -40.5 -14t-34.5 -33.5t-24 -41.5t-9 -38v-2q6 -53 39.5 -77.5t76.5 -24.5q22 0 44.5 5.5t43 16t37.5 25.5t29 33l110 -109q-28 -17 -63 -46t-69.5 -62.5l-66 -67t-52.5 -59.5q54 -15 103 -41.5t92.5 -62.5t80.5 -79.5t66 -91.5v770z" />
    <glyph glyph-name="bn_nga" unicode="&#x999;" horiz-adv-x="936" 
d="M901 332q0 -71 -24.5 -127t-67 -95t-100 -60t-123.5 -21q-99 0 -178.5 40.5t-142 108t-107.5 156t-75.5 184t-46.5 191.5t-20 180l54 -41q12 -74 33 -151t52.5 -149t73 -136t95.5 -112t120 -75.5t146 -27.5q45 0 86 17t72 45t49 64.5t18 75.5q0 32 -13.5 65t-45.5 64
q-48 -57 -113 -104t-137 -66q-30 1 -59.5 17.5t-54 41.5t-43 55t-25.5 60v248q-87 63 -158.5 130t-122.5 145l152 41q16 -26 29.5 -54.5t28.5 -56.5t32.5 -53t42.5 -45q15 37 36 73t52 64.5t72 45.5t96 17q40 0 74.5 -11t60 -32.5t40.5 -53t15 -72.5q0 -36 -19 -68.5
t-53.5 -57t-83.5 -39t-108 -14.5q-26 0 -45.5 5t-37.5 16v-185q0 -32 11 -50.5t43 -20.5q34 7 64.5 26.5t56 46.5t46.5 57.5t38 59.5q48 -18 87.5 -55t68 -86t44 -106.5t15.5 -114.5zM686 965q-9 20 -41 20q-35 -4 -67 -14t-60 -27.5t-49.5 -44t-34.5 -63.5q5 -8 17.5 -11.5
t29.5 -3.5q35 0 72 9t67.5 25.5t50 39t19.5 49.5q0 13 -4 21z" />
    <glyph glyph-name="bn_ca" unicode="&#x99a;" horiz-adv-x="836" 
d="M244 1040q6 -42 25.5 -76.5t49 -62t66.5 -47.5t78 -33q40 -16 89 -29.5t92 -35t72 -56.5t29 -94q0 -51 -20.5 -108t-54 -113.5t-77 -108.5t-90 -91.5t-92.5 -63t-85 -23.5q-33 0 -65.5 21.5t-58.5 52t-42.5 62.5t-16.5 53v753h-165v103h894v-103h-628zM514 641
q-47 24 -87.5 48t-74.5 51t-60.5 59t-45.5 73v-579q0 -25 8 -38.5t33 -18.5q52 15 105 50.5t95.5 86.5t69.5 113.5t27 131.5z" />
    <glyph glyph-name="bn_cha" unicode="&#x99b;" horiz-adv-x="926" 
d="M997 -156q-201 215 -438 291l-79.5 25.5t-77.5 23t-79.5 18t-86.5 11.5l-101 188q50 -17 96 -24.5t93 -7.5q27 0 69.5 7.5t91 23t97 38t88 53t64 68t24.5 82.5q0 26 -13 51t-36 44t-54.5 30.5t-68.5 11.5q8 -16 8 -41q0 -45 -31.5 -90.5t-79 -82t-103 -61t-104.5 -28.5
q-27 0 -55 11.5t-50 30t-36 42.5t-14 49v432h-147v103h984v-103h-734q9 -38 32 -65t57.5 -44.5t78.5 -27.5t93 -14l103 14q57 -2 104 -29t81.5 -70.5t53.5 -99t19 -112.5q0 -65 -27 -113.5t-71 -86.5t-99 -67.5t-112 -54.5q60 -22 113.5 -54.5t106.5 -76t108 -97.5l120 -118
l12 -80v0zM395 795l-49 24t-47.5 26t-42 32.5t-32.5 44.5v-295q0 -34 5 -44t25 -10q27 0 61.5 19t65 46.5t51.5 57.5t21 52v2l-2 26z" />
    <glyph glyph-name="bn_ja" unicode="&#x99c;" horiz-adv-x="1212" 
d="M678 1040l-64 -34q-2 -5 -2 -10v-9q11 -32 30.5 -54.5t45.5 -36.5t56.5 -20t62.5 -6q57 0 114 15t103 37l154 -158q-87 -102 -129.5 -211.5t-42.5 -224.5q0 -156 79 -318h-10q-13 0 -27.5 3t-27.5 7t-23 8.5t-14 8.5l-10 39q-26 102 -46 200t-20 197q0 69 13 138t47 141
q-17 -2 -30 -3t-26 -1q-58 0 -118.5 13.5t-115 39.5t-99.5 64.5t-72 88.5q-15 0 -37 -22t-45.5 -54.5t-43.5 -70t-30 -68.5l-2 -22q0 -72 76 -72q26 2 52 11.5t51 22l50 26t50 24.5q5 2 8 3t8 1q6 0 14 -4h2q32 -23 59 -55t46.5 -68.5t30 -76.5t10.5 -78q0 -55 -18 -105.5
t-53 -89.5t-86.5 -62.5t-119.5 -23.5q-79 6 -143.5 38t-115.5 82.5t-88.5 116t-62 139t-36.5 151.5t-12 154q0 54 6 105q15 -16 27 -22.5t20.5 -15t13 -23.5t6.5 -49q-1 -10 -1.5 -19.5t-0.5 -19.5q0 -80 27 -160t76.5 -146t119 -109.5t154.5 -49.5q30 0 68 10t71.5 28.5
t56.5 44.5t23 58q0 11 -3.5 25t-10 26.5t-17 21.5t-24.5 11q-18 -5 -40.5 -13.5t-46.5 -16.5t-47.5 -14.5t-41.5 -6.5q-50 0 -95 23t-79 59.5t-54 83t-20 94.5q0 66 39 129.5t109 134.5h-436v103h1283v-103h-575z" />
    <glyph glyph-name="bn_jha" unicode="&#x99d;" horiz-adv-x="1130" 
d="M1000 1040v-899l-46 49q-23 99 -77 181.5t-145 130.5v-482l-50 48l-39 92q-34 64 -84.5 125.5t-108 109.5t-117.5 77.5t-112 29.5h-17t-16 -2l-137 172q82 60 152 104t137.5 80t137.5 67.5l151 65.5v51h-651v103h754v-525q54 -30 93.5 -76.5t71.5 -99.5v891l49 -41
q1 -24 5 -50.5t13.5 -49t26.5 -37t45 -14.5h10t11 2h117v-103h-174zM629 829q-47 -14 -93.5 -35.5t-92 -48t-89 -55.5l-84.5 -57q61 -26 111.5 -62t93 -79.5t80.5 -94t74 -106.5v538z" />
    <glyph glyph-name="bn_nya" unicode="&#x99e;" horiz-adv-x="1581" 
d="M1502 236q-22 -29 -51 -44.5t-68 -15.5q-57 4 -109 28t-100 59.5t-91.5 77.5l-82.5 83v-430l-52 51q-14 45 -27.5 82t-34.5 64t-54.5 42t-86.5 15q-39 0 -82.5 -4.5t-85.5 -10t-80.5 -10t-66.5 -4.5q-88 1 -153 33.5t-108 85t-64 119.5t-21 137q0 71 20.5 138.5
t65.5 121.5l41 -41q-28 -40 -42.5 -88t-14.5 -96q0 -42 12 -82t38 -71.5t66.5 -52t96.5 -24.5q44 -9 91 -12.5t95 -5.5t95 -5.5t91.5 -13.5t84.5 -29t73 -52v671q-11 45 -24.5 57.5t-34.5 12.5q-48 -15 -91.5 -41.5t-79.5 -61.5t-62.5 -78t-39.5 -91q20 8 39 8
q22 0 40.5 -9.5t32.5 -25t22 -36.5t8 -44v-4q-7 -59 -39 -87t-72 -28q-63 0 -101.5 18t-60 45.5t-28.5 61t-7 64.5q0 46 18 93.5t48.5 92.5t72.5 85.5t89.5 72.5t98.5 53.5t101 28.5q36 0 68 -15.5t55 -39t36.5 -52t13.5 -53.5v-229q22 46 54 94.5t72.5 89.5t89 68.5
t102.5 31.5q51 -4 92 -27.5t70 -60t45 -82t16 -92.5q0 -49 -19 -95.5t-61 -80.5q15 -26 29.5 -55.5t25 -60t17 -61.5t6.5 -61q0 -32 -8.5 -62.5t-28.5 -59.5zM1447 375q19 28 22 59q0 7 -2 14.5t-8 17t-18 23.5t-33 35q-23 -20 -53.5 -30.5t-61.5 -10.5q-22 0 -43.5 6.5
t-38 19.5t-27 33t-10.5 48q0 21 10 42t26.5 37t37.5 26t43 10q22 -4 46.5 -9.5t47.5 -5.5q19 0 32 9t20.5 22t10.5 28t3 27q0 22 -8 42t-23 35.5t-37.5 24.5t-50.5 9q-54 -5 -108 -32.5t-99.5 -69.5t-77.5 -93.5t-43 -105.5q7 -50 35 -97.5t70 -84.5t94.5 -59.5t108.5 -22.5
q94 0 135 53z" />
    <glyph glyph-name="bn_tta" unicode="&#x99f;" horiz-adv-x="848" 
d="M216 1040v-690q0 -37 25 -55.5t62 -18.5q19 0 47 14.5t59 38.5t63 56t57.5 66.5t42 70t18.5 66.5q-8 -3 -17 -3.5t-18 -0.5q-25 0 -48.5 9t-42 24.5t-29.5 37t-11 45.5q0 35 14.5 61t35.5 43.5t45.5 26.5t45.5 9q40 0 72.5 -19.5t55.5 -51.5t35.5 -73t12.5 -84
q0 -81 -37 -156t-95.5 -136t-130 -104t-140.5 -60l-49 -4q-36 6 -68 31.5t-56 60.5t-38 75.5t-14 75.5v645h-151v103h675l2 41v4q0 48 -38.5 73t-100.5 25q-48 0 -88.5 -1t-76.5 -2.5t-70.5 -4t-71.5 -4.5q-51 0 -102.5 15.5t-93 45t-68.5 71t-29 93.5q1 20 4.5 39.5
t11.5 36t22.5 28t36.5 15.5q0 -9 0.5 -18.5t4.5 -18.5q-14 -12 -19.5 -24.5t-5.5 -26.5q0 -23 12 -44.5t32.5 -37.5t47 -25.5t55.5 -9.5l340 19q59 0 112.5 -18t94 -51t64.5 -80t24 -105v-35h156v-103h-677z" />
    <glyph glyph-name="bn_ttha" unicode="&#x9a0;" horiz-adv-x="829" 
d="M504 1040q48 -47 86.5 -108t65.5 -129t42 -141t15 -144q0 -78 -19.5 -150t-60.5 -130t-106 -98t-156 -54h-17q-64 0 -119.5 27.5t-97 73.5t-65 105t-23.5 122q0 47 17 98q90 28 152.5 76.5t100.5 103.5t55 109t17 94q0 35 -4.5 71.5t-15.5 73.5h-401v103h337v26
q-3 11 -18 32t-37 56q-21 32 -40 70t-33.5 78t-23 80.5t-8.5 79.5q0 58 24 111t83 91l121 -104q-36 -16 -61.5 -29.5t-42.5 -31.5t-26 -43.5t-12 -65.5v-6q0 -38 22.5 -85t54.5 -94t67 -90.5l61 -74.5h426v-103h-360zM504 813q0 -69 -24 -136t-66.5 -124.5t-100 -102.5
t-123.5 -69q-8 -5 -11 -18.5t-3 -40.5q0 -38 12 -65.5t32 -45.5t46.5 -26.5t55.5 -8.5q76 0 132.5 39t94.5 97.5t57 126.5t19 126q0 91 -32 181t-95 165z" />
    <glyph glyph-name="bn_dda" unicode="&#x9a1;" horiz-adv-x="1071" 
d="M509 1040v-397q40 4 78 27t72.5 54.5t63 67.5t49.5 68q48 -26 83 -63t58 -81.5t34 -93.5t11 -100q0 -74 -23.5 -145t-68 -127.5t-109 -91t-147.5 -35.5l-28 2q-85 0 -156.5 39t-128.5 105t-99.5 152t-71 180t-42.5 190t-14 182v6l59 -33q9 -65 24 -137t39 -142t58 -134.5
t81.5 -114.5t109.5 -81t141 -34q60 1 114 21t95 54t65.5 78.5t24.5 94.5q0 34 -13 70t-41 71q-17 -29 -48 -64.5t-69 -66.5t-80.5 -51.5t-82.5 -20.5q-29 0 -49 9.5t-36 26.5t-29 41.5t-27 54.5v419h-426v103h1140v-103h-611z" />
    <glyph glyph-name="bn_ddha" unicode="&#x9a2;" horiz-adv-x="850" 
d="M255 1040v-688q0 -26 11.5 -46.5t42.5 -22.5q44 11 90.5 40.5t85.5 70.5t67 92t34 106q-13 -3 -22.5 -5.5t-20.5 -2.5q-28 0 -49.5 12t-36.5 31t-23 43.5t-8 50.5q0 23 7.5 45t24 39.5t43 28t64.5 10.5q39 0 71 -21t54.5 -54t34.5 -74t12 -81q0 -79 -33 -156.5t-89 -141
t-129 -108.5t-154 -58q-44 0 -91 44.5t-89 116.5v729h-182v103h909v-103h-624z" />
    <glyph glyph-name="bn_nna" unicode="&#x9a3;" horiz-adv-x="922" 
d="M758 1040v-1038l-111 115v573q0 55 -21.5 110.5t-59.5 100t-89 72.5t-110 28q-36 0 -69 -15.5t-58 -42.5t-39.5 -63t-14.5 -77q0 -35 6.5 -64t19.5 -50.5t33 -34t46 -13.5l-8 51q0 22 8 37.5t21.5 26t31.5 15.5t37 5q17 0 32 -2t28.5 -10t26 -24t24.5 -44l8 -45
q0 -27 -14.5 -52.5t-40.5 -45t-62 -31.5t-80 -12q-53 0 -99.5 25t-81.5 68.5t-55 102.5t-20 128q0 64 23 121.5t64 100.5t98.5 68t125.5 25q45 0 82 -16.5t67.5 -43.5t55.5 -63t47 -74.5t42 -78t40 -74.5q-5 31 -10.5 69l-10.5 75t-8.5 68.5t-3.5 49.5v182v49q0 25 -2 49
q19 -13 32 -32.5t22.5 -41.5l18 -43.5t20.5 -37.5l55 -43h145v-103h-192z" />
    <glyph glyph-name="bn_ta" unicode="&#x9a4;" horiz-adv-x="1130" 
d="M-26 1040v103h1200v-103h-1200zM1059 522q0 -77 -28.5 -146.5t-78.5 -122t-117 -83.5t-145 -31q-96 7 -171.5 42t-135 90.5t-105 128t-81.5 153t-64.5 165.5t-53.5 167l-30 96l60 -25q32 -66 62.5 -138t65 -141.5t75.5 -133t93 -113.5t117.5 -83t149.5 -42
q52 0 104.5 25.5t95 66.5t69 93t26.5 106q0 39 -13.5 78t-38.5 69.5t-59 50t-76 19.5q-14 0 -27 -2.5t-28 -7.5q20 -23 29.5 -53.5t9.5 -61.5q0 -32 -10.5 -59.5t-30.5 -48t-50.5 -32t-70.5 -11.5q-39 0 -70.5 15t-54 41.5t-35 63.5t-12.5 82q0 43 20 81.5t52.5 67
t73.5 45.5t83 17q96 0 170.5 -38.5t125.5 -99.5t77.5 -137.5t26.5 -152.5z" />
    <glyph glyph-name="bn_tha" unicode="&#x9a5;" horiz-adv-x="977" 
d="M831 1040v-1050q-46 79 -103.5 156t-130.5 138t-163.5 98.5t-202.5 37.5l-161 213q9 -2 18 -2h21q40 0 87.5 10.5t94.5 29.5t91 45t78 57.5t54.5 67t20.5 72.5q0 25 -10.5 47.5t-28.5 39.5t-41.5 26.5t-48.5 9.5q-23 -4 -47 -12.5t-47.5 -21t-44.5 -27.5t-36 -31
q17 -20 27.5 -34.5t16.5 -25t8 -19t2 -15.5q0 -22 -10.5 -43t-28 -37.5t-41 -26.5t-49.5 -10q-33 0 -57.5 12.5t-41 32.5t-24.5 46t-8 53q0 64 33.5 114t85 83.5t113.5 51t118 17.5h8q46 0 91 -22t80 -60t57 -88t22 -105q-6 -63 -23 -112t-46.5 -88.5t-71.5 -73t-99 -64.5
q41 -15 88.5 -47t93.5 -72.5t87 -85.5t69 -85v1093l55 -65q3 -18 5.5 -38.5t6.5 -38.5t10 -31t17 -17h179v-103h-173z" />
    <glyph glyph-name="bn_da" unicode="&#x9a6;" horiz-adv-x="979" 
d="M207 1040v-432l108 90t109 85.5t117 74.5t133 57l178 -133q-68 -117 -100.5 -233.5t-32.5 -237.5q0 -158 55 -319l-72 31q-38 102 -63 213.5t-25 226.5q0 128 39 248q-81 -28 -148 -75.5t-119 -103t-88.5 -113.5t-55.5 -106l-138 142v585h-134v103h1054v-103h-817z" />
    <glyph glyph-name="bn_dha" unicode="&#x9a7;" horiz-adv-x="920" 
d="M771 1040v-1077l-28 49q-18 55 -49 109t-71.5 103t-89.5 91t-103 73t-112 48.5t-117 18.5l-121 161l258 193q-97 0 -152.5 50.5t-60.5 131.5q0 14 5 41.5t23.5 54.5t55.5 47.5t102 20.5q42 0 73.5 -25.5t31.5 -76.5q0 -30 -25.5 -45t-73.5 -15q-9 0 -20.5 4t-34.5 21
q-16 -10 -16 -57q0 -22 11.5 -41.5t30 -34t42.5 -23t49 -8.5q12 0 20 1t13 3l256 150v135h274v-103h-171zM668 821q-103 -42 -194 -101.5t-173 -133.5q54 -26 106 -59.5t99.5 -74t88.5 -87.5t73 -101v557z" />
    <glyph glyph-name="bn_na" unicode="&#x9a8;" horiz-adv-x="918" 
d="M777 1040v-1069l-40 52q-4 62 -14.5 131.5t-29.5 139t-49 134.5t-72.5 118t-100 90t-131.5 50l-8 -18q29 -31 43 -66t14 -70q0 -27 -9 -51t-28 -43t-49 -30t-72 -11q-38 0 -70.5 12.5t-56 36.5t-36.5 60t-13 84q0 57 22 101.5t59.5 74.5t87.5 45.5t106 15.5
q40 0 77.5 -16.5t71.5 -44t64 -62.5t55 -72t44.5 -73t31.5 -65v546h-699v103h979v-103h-177z" />
    <glyph glyph-name="bn_pa" unicode="&#x9aa;" horiz-adv-x="1096" 
d="M963 1040v-1052l-103 92v522q-13 45 -27.5 84t-30.5 69.5t-33.5 51t-37.5 27.5l-350 -349l-145 54l88 94q9 8 13.5 22.5t4.5 34.5q0 18 -4.5 36.5t-13.5 33.5t-21.5 24t-28.5 9q-12 0 -18 -2.5t-16.5 -7.5t-32 -12t-64.5 -17q-8 0 -22 5t-27.5 15.5t-23 25t-9.5 34.5
q25 70 62 124t86.5 91.5t113 57t142.5 19.5q82 0 150 -36.5t120.5 -94.5t88.5 -130.5t55 -145.5l-19 258v301q11 -8 24 -14t19 -19v-10q0 -41 21.5 -60.5t56.5 -31.5h139v-103h-157zM645 942q-31 37 -74.5 55.5t-93.5 18.5q-35 0 -68.5 -8.5t-62.5 -25t-51.5 -41
t-34.5 -56.5q36 0 63 -14.5t44.5 -39.5t26.5 -58.5t9 -70.5z" />
    <glyph glyph-name="bn_pha" unicode="&#x9ab;" horiz-adv-x="1253" 
d="M342 1040q37 -25 74 -57.5t72 -68.5t67 -74.5t59 -75.5l-252 -211q52 -22 104 -52.5t98.5 -68t86 -82t68.5 -94.5v705q46 12 92 12q76 0 143 -24.5t116.5 -69.5t78.5 -108t29 -140q0 -40 -12.5 -73t-35 -57t-54 -37t-70.5 -13q-54 0 -86.5 33.5t-32.5 90.5q0 22 9.5 39.5
t25 30.5t35 20t40.5 7q20 0 40.5 -8.5t47.5 -30.5q4 -4 9 -4q6 0 7 8.5t1 24.5q0 39 -19 67.5t-48.5 47t-66.5 27.5t-73 9q-20 0 -38.5 -2.5t-34.5 -7.5v-803l-42 37q-35 78 -85 147t-114.5 121.5t-143 83.5t-169.5 33l-118 170l288 258q-9 5 -20.5 14.5l-24 19t-24.5 17.5
t-21 10q-14 3 -35.5 6.5l-43 7t-40.5 7t-28 8.5q-20 9 -37.5 22t-34 27t-34 27t-36.5 24h-89v103h1312v-103h-940z" />
    <glyph glyph-name="bn_ba" unicode="&#x9ac;" horiz-adv-x="909" 
d="M758 1040v-1058l-56 77q-28 87 -81 159.5t-122.5 126.5t-152 86.5t-170.5 39.5l-131 186q144 101 293 181t317 133v69h-691v103h982v-103h-188zM655 807q-102 -31 -203.5 -86.5t-191.5 -118.5q127 -53 224 -135.5t171 -198.5v539z" />
    <glyph glyph-name="bn_bha" unicode="&#x9ad;" horiz-adv-x="1094" 
d="M-30 1040v103h1158v-103h-1158zM627 731q68 38 113.5 88.5t68.5 110.5q59 -32 101.5 -73t70 -88.5t40.5 -99.5t13 -104q0 -78 -27 -151.5t-79 -130.5t-126.5 -92t-168.5 -35q-94 8 -168 43.5t-132.5 91.5t-103.5 129.5t-81 158.5t-66.5 178t-58.5 187l65 -20
q23 -69 51.5 -140.5t64 -138.5t80 -126.5t100.5 -104t124.5 -70t153.5 -25.5q54 0 104 25.5t87.5 66.5t60 93t22.5 106q0 42 -14.5 81.5t-49.5 74.5q-18 -38 -48.5 -73t-71.5 -62t-92.5 -43.5t-110.5 -16.5q-42 0 -81 14.5t-70 42t-49.5 67t-18.5 89.5q0 73 45.5 115.5
t132.5 42.5q25 0 46 -11.5t36.5 -30.5t24 -42t8.5 -47q0 -25 -10 -48t-31 -40z" />
    <glyph glyph-name="bn_ma" unicode="&#x9ae;" horiz-adv-x="1008" 
d="M844 1040v-1046l-43 47q-6 57 -33.5 116.5t-66.5 110t-85.5 86t-91.5 43.5q-15 -16 -34 -32t-41.5 -29t-48.5 -21t-54 -8q-83 0 -125.5 50t-42.5 128q0 40 19 72t49 54t67 34t72 12q22 0 42 -4.5t36 -15.5q0 51 -15 94t-45 77t-75 56t-105 31q-45 12 -72 23.5t-46 27.5
t-32.5 38t-31.5 56h-71v103h1064v-103h-190zM745 1040h-475q58 -38 112.5 -88t97 -109.5t68 -127t25.5 -140.5v-22q0 -10 -2 -21q45 -45 91 -97.5t83 -106.5v712z" />
    <glyph glyph-name="bn_ya" unicode="&#x9af;" horiz-adv-x="971" 
d="M822 1040v-1050l-46 45q-26 69 -72.5 138.5t-108 126t-134.5 91.5t-152 35h-22q-10 0 -21 -2l-139 172q33 39 70.5 73.5t77 66.5l80 63l79.5 63q-25 23 -56.5 38t-65.5 26t-69.5 20t-69 21t-64 29t-54.5 44h-85v103h1029v-103h-177zM719 1040h-393q40 -24 75 -48.5
t66.5 -53t61.5 -61t61 -72.5q-33 -34 -63.5 -62.5l-60.5 -57l-60 -59.5t-62 -69q54 -14 106.5 -45t100.5 -71.5t90.5 -88t77.5 -94.5v782z" />
    <glyph glyph-name="bn_ra" unicode="&#x9b0;" horiz-adv-x="907" 
d="M758 1040v-1038l-39 37q-32 81 -84 160t-121.5 141.5t-154 101t-179.5 39.5l-133 183q140 102 293 176t315 133v67h-685v103h968v-103h-180zM258 197q0 18 7.5 36t20 32.5t29.5 23t35 8.5h10q21 0 40 -9t33.5 -23.5t23 -34t8.5 -40.5q0 -19 -7.5 -37.5t-20 -33.5t-30 -24
t-38.5 -9t-41 8.5t-35.5 23t-25 35t-9.5 44.5zM655 821q-58 -16 -109.5 -37.5t-99.5 -48t-94 -57.5l-94 -66q59 -22 116.5 -59t109.5 -84t95.5 -102t75.5 -113v567z" />
    <glyph glyph-name="bn_la" unicode="&#x9b2;" horiz-adv-x="1112" 
d="M947 1040v-1050l-103 100v567q-2 25 -14.5 49t-32 42t-44.5 29t-53 11q-37 -6 -53 -36.5t-16 -67.5q0 -15 2.5 -30t7.5 -29l-43 -17q-16 43 -35 76t-44.5 55.5t-61 36t-84.5 17.5q-31 0 -63.5 -9.5t-59.5 -31.5t-44.5 -58t-17.5 -88q0 -30 11 -54t29.5 -41.5t43 -28.5
t52.5 -15q-16 17 -22.5 35.5t-6.5 38.5q0 25 9.5 46.5t26.5 37.5t40.5 25t52.5 9q26 0 47.5 -15.5t36.5 -40t23 -55t8 -61.5q0 -29 -13.5 -51t-36 -37t-50.5 -22.5t-56 -7.5h-6q-62 0 -114.5 21.5t-90.5 60t-59 92.5t-21 119q0 51 17.5 101t48.5 89.5t73.5 64.5t92.5 25
q66 0 124 -35.5t93 -91.5q0 6 8.5 24t25 38t41 37t56.5 22q37 0 63 -17t45.5 -42.5t34 -55.5t29.5 -57v276h-874v103h1177v-103h-200z" />
    <glyph glyph-name="bn_sha" unicode="&#x9b6;" horiz-adv-x="1040" 
d="M924 1040v-1048l-103 94v653q0 14 -9 37t-24.5 50t-35 54t-40 49t-41.5 36t-38 14q-24 0 -45 -7t-36.5 -18t-24.5 -26t-9 -31q22 -14 49.5 -35.5t51.5 -47.5t40.5 -53.5t16.5 -53.5q0 -29 -9.5 -54.5t-28 -44.5t-44.5 -30t-59 -11q-20 0 -41.5 8t-41.5 22t-37 32.5
t-28 40.5q-8 -26 -25 -45t-40 -32t-50.5 -19.5t-54.5 -6.5q-23 0 -43.5 12.5t-36.5 33.5t-26.5 47.5t-12.5 54.5q6 36 23 66.5t41 55.5t53 45.5t59 35.5q-11 20 -24.5 41.5t-31 39t-38.5 29t-47 11.5h-133l-102 104h223q40 0 74.5 -17t62.5 -45t48.5 -62.5t33.5 -68.5
q18 40 39 69.5t50 52t68 40t95 33.5q23 -5 48.5 -25.5t50.5 -49.5t49 -65t46 -72.5l41 -71l33 -60.5l-39 284v240q14 -12 28 -25.5t25.5 -28.5t19 -32t7.5 -37q0 -25 16.5 -36.5t53.5 -22.5h137v-103h-184z" />
    <glyph glyph-name="bn_ssa" unicode="&#x9b7;" horiz-adv-x="958" 
d="M810 1040v-1038q-35 31 -58 72l-45 80q-21 48 -70.5 97t-111.5 89.5t-127.5 66t-118.5 25.5l-23 -2l-139 180l77 66l76 67.5l77 65.5t81 61q-31 22 -68.5 27.5t-76.5 6l-77.5 1t-70.5 12.5q-19 7 -31.5 21t-22 31l-19 35.5t-23.5 35.5h-69v103h1023v-103h-183zM707 1040
h-398l63.5 -43.5t63.5 -46.5t59 -50.5t50 -57.5q15 -12 36 -32l44 -40t45 -35.5t37 -19.5v325zM707 590q-36 42 -79.5 84.5t-86.5 73.5q-29 -16 -55 -38.5t-51 -47t-48.5 -50.5t-46.5 -49q109 -52 198 -123t169 -174v324z" />
    <glyph glyph-name="bn_sa" unicode="&#x9b8;" horiz-adv-x="1073" 
d="M902 1040v-1050l-103 116v443q-8 22 -19 47t-26 46.5t-34.5 37t-45.5 18.5q-32 0 -56 -16q-31 -28 -55.5 -62.5t-46.5 -70l-43.5 -68.5t-46.5 -59t-55 -41.5t-70 -15.5q-42 0 -74 23t-57.5 57t-46.5 73.5l-39 71.5l68 65q4 -16 12 -38.5t20.5 -43.5t29.5 -36.5t38 -18.5
q25 0 51 27l133 178q-1 47 -12.5 88.5t-36 72t-62 48.5t-89.5 18q-49 0 -77.5 4t-46.5 14t-31.5 27.5t-31.5 44.5h-79v103h1138v-103h-206zM799 1040h-443q28 -15 52 -38.5t41.5 -53t27.5 -62.5t10 -67q0 -11 -1 -21t-3 -20q16 8 32.5 20.5t34 24.5t35.5 20.5t38 8.5
q31 0 55 -16t43.5 -39t38 -48.5t39.5 -43.5v335z" />
    <glyph glyph-name="bn_ha" unicode="&#x9b9;" horiz-adv-x="860" 
d="M979 -172q-94 94 -191 173t-198 140.5t-206 104t-216 63.5l-113 277q65 -47 157.5 -70.5t193.5 -23.5q40 7 86.5 22t88.5 40t72 59t37 79q0 31 -15 58t-40 47t-57 31.5t-66 11.5q-25 0 -49 -6q-2 -37 -19 -71t-44 -60.5t-62 -43t-72 -18.5q-25 1 -47.5 10.5t-39 25.5
t-26.5 37.5t-10 45.5q3 28 17.5 55t42 52t70.5 47.5t104 43.5q4 3 4 9q0 11 -10 23t-24 22t-28.5 17.5t-23.5 10.5h-335v103h960v-103h-480q5 -10 8 -21t6.5 -22t9 -20.5t15.5 -15.5q51 -3 105 -30t98 -69.5t72 -96t28 -110.5q0 -51 -16.5 -94.5t-52 -81t-90.5 -70.5
t-131 -63l10 -18q66 -31 125.5 -71.5t113.5 -87.5t103.5 -98.5l95.5 -103.5z" />
    <glyph glyph-name="bn_nukta" unicode="&#x9bc;" horiz-adv-x="0" 
d="M-424 -250q-33 -67 -102 -67q-26 0 -48 8.5t-38 24.5t-25.5 37.5t-9.5 47.5v6q0 22 9.5 43.5t26 38.5t38.5 27t47 10q22 0 43 -9t37 -24.5t26 -37t10 -45.5q0 -33 -14 -60z" />
    <glyph glyph-name="bn_avagraha" unicode="&#x9bd;" horiz-adv-x="860" 
d="M465 989q3 -9 4.5 -16t9.5 -12q50 -4 103 -30.5t96.5 -68.5t71.5 -96.5t28 -114.5q0 -51 -16 -94.5t-50.5 -80.5t-89 -69t-130.5 -61q70 -38 131.5 -82t116.5 -93t104.5 -100.5l95.5 -103.5l39 -139q-77 85 -168.5 162t-195 140t-216 109t-231.5 70l-113 277
q65 -47 157.5 -70.5t193.5 -23.5q40 7 86.5 22t88.5 40t72 59t37 79q0 31 -15 58t-40 47t-57 31.5t-66 11.5q-25 0 -49 -6q-2 -37 -19 -71t-44 -60.5t-62 -43t-72 -18.5q-22 0 -43.5 7t-39 21.5t-28 37t-10.5 53.5q0 34 22.5 68t57 61.5t75.5 46t77 22.5q4 3 4 9
q0 11 -10 23t-24 22t-28.5 17.5t-23.5 10.5h-325v103h376q28 0 48 -14t32 -32t17.5 -34.5t5.5 -22.5z" />
    <glyph glyph-name="bn_aakaar" unicode="&#x9be;" horiz-adv-x="414" 
d="M261 1040v-1075l-103 107v776q0 39 -14.5 74t-40 61t-59 41.5t-71.5 15.5h-139v103q31 2 53 4t45 2q14 0 30 -1.5t38 -6.5q39 -1 71.5 -28t57.5 -67t43 -85t27 -82q-18 105 -30 217.5t-15 230.5l41 -33q5 -42 17 -82t44 -69h184v-103h-179z" />
    <glyph glyph-name="bn_ikaar" unicode="&#x9bf;" horiz-adv-x="389" 
d="M893 1386q-81 54 -177.5 84.5t-205.5 30.5q-62 0 -116 -22t-98.5 -59.5t-76.5 -86t-49 -102.5l39 -88h270v-103h-233v-1058l-103 96v962h-183v103h192l-91 96q-14 14 -14 47q21 85 54.5 143t81.5 95.5t111.5 58t145.5 31.5q84 -6 167.5 -28t161 -59t147 -89t126.5 -119
l23 -66z" />
    <glyph glyph-name="bn_iikaar" unicode="&#x9c0;" horiz-adv-x="414" 
d="M228 1040v-1050l-103 102v948h-174v103h174q-15 102 -65 180.5t-124 131.5t-165.5 80.5t-188.5 27.5q-20 0 -51 -3t-65.5 -8.5t-69 -14t-62.5 -20t-45.5 -26.5t-17.5 -33q0 -17 23 -27t59 -15.5t80.5 -8.5t88 -4.5t81 -4t59.5 -7.5q41 0 77 -16.5t62.5 -44t42 -63.5
t15.5 -75q0 -16 -2 -31t-9 -31h-108l32 31t17 41v2q0 23 -19 37.5t-52.5 22.5t-79.5 11t-101 3q-34 0 -64.5 2t-59.5 9t-59 20.5t-63 36.5q-35 20 -51 50t-16 64q0 99 99.5 152t291.5 53q107 0 211 -39t188.5 -109t142 -165.5t71.5 -208.5h233v-103h-233z" />
    <glyph glyph-name="bn_ukaar" unicode="&#x9c1;" 
d="M59 -365q-19 25 -51 58.5t-71 69t-82.5 69t-85.5 59.5l-48.5 -43.5t-44.5 -33.5t-43.5 -21.5t-46.5 -7.5q-42 0 -77.5 9t-61 28t-39.5 46.5t-14 65.5q0 34 15 62.5t40.5 49.5t59 32.5t69.5 11.5q27 -2 44 -5t32 -9.5t31.5 -16l42.5 -24.5l2.5 12.5t2 24t1 46.5t0.5 81
l51 -37q43 -58 43 -111q0 -24 -0.5 -38.5t-0.5 -21.5q0 -8 -0.5 -11t-0.5 -5q0 -5 1 -6.5t3 -3.5q68 -54 128 -117.5t97 -142.5l17 -49zM-328 -43q-7 9 -13 15t-16 10t-26 6t-43 2q-38 0 -63 -17.5t-25 -52.5q0 -24 23 -29.5t61 -5.5q18 2 36.5 8t33.5 14t24.5 19t9.5 23
q0 2 -1 3.5t-1 4.5z" />
    <glyph glyph-name="bn_uukaar" unicode="&#x9c2;" 
d="M-129 -233q-16 -11 -40.5 -21t-53 -18t-58.5 -12.5t-57 -4.5q-32 0 -60.5 13.5t-51 39t-35.5 61t-13 79.5q0 34 17.5 63.5t45 51.5t63 34.5t71.5 12.5q15 0 30 -3t29 -8l-10 99l31 -25t29.5 -29t22.5 -37t9 -49q0 -29 -14 -39q-42 11 -88 11q-21 0 -47 -5t-49 -16.5
t-38.5 -30.5t-15.5 -47q0 -16 9 -29t23 -22.5t32.5 -14.5t36.5 -5q48 6 92.5 16.5t81.5 36.5l276 -234q5 -6 10 -17.5t9.5 -25.5t7 -29t2.5 -28q0 -5 -1 -9t-1 -7z" />
    <glyph glyph-name="bn_rikaar" unicode="&#x9c3;" 
d="M-115 -469q-11 14 -31.5 30l-46.5 36q-94 71 -193.5 131l-201.5 118l297 217l37 103l84 -166l-225 -160q23 -19 54.5 -40l66 -43.5t68.5 -47t61.5 -49.5t46 -50.5t22.5 -51.5l6 -76z" />
    <glyph glyph-name="bn_rrikaar" unicode="&#x9c4;" horiz-adv-x="0" 
d="M-375 -487q-15 18 -51 47t-82 60.5l-96 63t-92 54.5l55 -109l-225 -159q30 -19 72 -48.5l85 -61.5l79.5 -61.5t56.5 -48.5q11 -14 17.5 -30t8.5 -33l6 -76l-45 49q-11 14 -31.5 30l-46.5 36q-96 69 -194.5 130l-200.5 120l297 217l25 69l-111 66l297 217l37 102l84 -165
l-225 -160q30 -18 72 -48l85 -61.5t79.5 -61.5t56.5 -48q11 -14 17.5 -30.5t8.5 -33.5l6 -76z" />
    <glyph glyph-name="bn_ekaar" unicode="&#x9c7;" horiz-adv-x="604" 
d="M643 1042q-111 -25 -195.5 -80.5t-141 -136.5t-85 -186t-28.5 -229q0 -51 14.5 -104t42.5 -95.5t69.5 -70t96.5 -27.5h12q-31 29 -43 51.5t-18 54.5q0 23 9.5 43t25.5 35.5t37 25t44 11.5q57 -5 95 -44t38 -104q0 -25 -14 -52t-38.5 -49.5t-57 -37t-68.5 -14.5
q-63 0 -113.5 23t-89.5 62.5t-66.5 91.5t-45.5 110.5t-26.5 120t-8.5 118.5q0 61 16 125t44 126.5t65.5 120.5t81.5 109h-319v103h667v-101z" />
    <glyph glyph-name="bn_aikaar" unicode="&#x9c8;" horiz-adv-x="592" 
d="M662 1040q-34 1 -52 1h-31h-19q-8 0 -21 -1q-64 0 -118.5 -27.5t-98.5 -73t-78.5 -105t-57.5 -124t-35 -129.5t-12 -121q0 -87 13 -144t39.5 -94.5t68 -60.5t98.5 -40q-7 12 -14 21.5t-13 20.5t-10 23.5t-4 30.5q0 20 9 39.5t25 35t39 25t50 9.5q28 0 53.5 -12t44 -31.5
t29.5 -45t11 -53.5q0 -31 -17 -60t-44 -51.5t-61.5 -36t-68.5 -13.5q-61 4 -111 28.5t-89 64.5t-67.5 92.5t-47.5 111.5t-28 121.5t-9 123.5q0 60 17.5 122.5t47.5 124t69 119.5t81 109h-280v103h390q11 6 20 16.5t9 26.5q0 31 -21.5 49.5t-57 30t-81 19l-92.5 16t-92.5 21
t-81 35.5t-57 58t-21.5 88q0 26 10 49.5t31 40.5l35 -34q-12 -7 -18 -19.5t-6 -26.5q0 -32 17 -50t46.5 -26.5t68.5 -10t83 -1.5q26 0 51 -0.5t51 -5.5q45 0 88.5 -19.5t77.5 -52.5t55 -76t21 -91q0 -10 -1 -19t-3 -18h170v-103z" />
    <glyph glyph-name="bn_okaar" unicode="&#x9cb;" horiz-adv-x="1587" 
d="M643 1042q-113 -22 -197.5 -78t-140.5 -137t-84 -182t-28 -213q0 -51 12.5 -107t40.5 -103t72.5 -77.5t109.5 -31.5q-15 15 -25.5 27.5t-17 26t-10.5 29.5t-6 37q6 39 36 67t78 34q28 -3 52.5 -16.5t42.5 -33.5t28 -45.5t10 -52.5q0 -25 -14 -52t-38.5 -49.5t-57 -37
t-68.5 -14.5q-69 0 -121.5 26t-91.5 69.5t-65.5 100t-43 118t-23.5 123t-7 114.5q0 59 17 119t45.5 118.5t66.5 114t80 104.5h-319v103h667v-101zM1464 1040v-1075l-98 107v776q0 39 -14.5 74t-40 61t-59 41.5t-70.5 15.5h-140v103l101 6q9 0 21.5 -1t43.5 -7
q39 -1 71.5 -28t58 -67t43 -85t26.5 -82q-17 112 -30 224t-15 224l41 -33q5 -42 17 -82t44 -69h174v-103h-174z" />
    <glyph glyph-name="bn_aukaar" unicode="&#x9cc;" horiz-adv-x="1690" 
d="M662 1040q-12 7 -33 7q-55 -9 -111.5 -30t-105.5 -45.5t-86 -49.5t-52 -41q-21 -22 -42.5 -59.5t-41 -92.5t-34.5 -126.5t-21 -160.5q0 -84 17.5 -142.5t48 -96t71 -56.5t86.5 -26q-20 18 -30.5 41.5t-10.5 48.5q0 22 7.5 43t22 37.5t34.5 26.5t45 10q30 0 57.5 -11
t48.5 -30t33.5 -45t12.5 -56q0 -27 -15 -56t-41.5 -52t-63.5 -38t-81 -15q-56 0 -102.5 22.5t-84 61t-65.5 89.5t-47.5 108t-29.5 115.5t-11 113.5q8 134 64 265t149 240h-280v103h390q10 6 19.5 16.5t9.5 24.5q0 32 -18 50t-45.5 28t-60.5 14.5t-64 9.5l-133 23l-97 45
q-34 23 -60 59t-26 84q0 23 8.5 45.5t32.5 50.5l35 -34q-24 -14 -24 -43q0 -19 15 -42.5t62 -41.5q35 -6 84 -5.5t102 -2.5t105.5 -13t94 -35.5t67 -72t25.5 -121.5v-39h170v-103v0zM1550 1040v-1075l-98 107v776q0 39 -14.5 74t-40 61t-59 41.5t-70.5 15.5h-140v103l101 6
q8 2 14 2h14q47 0 86 -26t69 -66t50.5 -88t30.5 -92q-17 112 -30 224t-15 224l41 -33q5 -42 17 -82t44 -69h174v-103h-174z" />
    <glyph glyph-name="bn_hasanta" unicode="&#x9cd;" 
d="M229 -332l-372 264h159l318 -264h-105zM0 1040v103h111v-103h-111z" />
    <glyph glyph-name="bn_aumark" unicode="&#x9d7;" horiz-adv-x="449" 
d="M263 1040v-1071l-103 111v960h-168v103h168q24 27 24 67q0 30 -7.5 47.5t-25.5 26.5t-48 11.5t-75 2.5h-218q-80 0 -146.5 15.5t-114 45.5t-74 72.5t-26.5 96.5q0 32 12 64.5t47 74.5l46 -39q-17 -14 -28 -30t-11 -42q0 -38 18.5 -61.5t47.5 -36.5t65 -17.5t71 -4.5
q60 0 122 6t116 6q28 0 72.5 -4t89.5 -14q32 -7 61.5 -27.5t52.5 -51t36.5 -70.5t13.5 -85q0 -14 -3.5 -26.5t-14.5 -26.5h212v-103h-212z" />
    <glyph glyph-name="bn_rra" unicode="&#x9dc;" horiz-adv-x="1073" 
d="M513 1040v-312q0 -11 0.5 -26.5t2.5 -31t7 -27t14 -12.5q38 15 72 37.5t64 50.5t56.5 60t50.5 65q19 24 31 24q48 -19 82 -60.5t56.5 -93t33 -105.5t10.5 -99q0 -80 -24.5 -155.5t-71.5 -134.5t-114.5 -94.5t-153.5 -35.5q-100 0 -180.5 40t-142.5 107.5t-107.5 157
t-75.5 189t-46.5 203t-21.5 198.5l62 -33q9 -67 24.5 -141.5t41.5 -147t62.5 -139t86.5 -118t115.5 -84t148.5 -37.5q61 0 116.5 21.5t98 58t67.5 84.5t25 100q0 32 -11 65.5t-34 65.5q-19 -28 -51.5 -62t-71.5 -64.5t-81 -52t-81 -22.5q-37 1 -64 16t-46 39.5t-32 56
t-21 66.5v383h-440v103h1148v-103h-605zM596 10q22 0 43 -9t37.5 -24.5t26.5 -37t10 -45.5q0 -26 -9 -49t-25 -40t-37.5 -27.5t-45.5 -10.5q-26 0 -48 9t-38 25t-25.5 39t-9.5 51q0 22 9.5 43.5t26 38.5t38.5 27t47 10z" />
    <glyph glyph-name="bn_rha" unicode="&#x9dd;" horiz-adv-x="862" 
d="M257 1040v-667q0 -23 16 -43.5t40 -20.5q42 12 86.5 41t83 69.5t66 90.5t35.5 104q-9 -2 -17 -3t-16 -1q-23 0 -46 7.5t-41 22t-29 36.5t-11 51q0 72 39 106.5t102 34.5q38 0 70 -20.5t55.5 -52.5t37 -71.5t13.5 -78.5v-17t-2 -16q0 -42 -18 -91.5t-48.5 -98.5t-71 -94
t-86 -79.5t-94 -55.5t-93.5 -21q-12 0 -30.5 4.5t-40.5 22.5t-45.5 54t-47.5 99l-10 37v651h-184v103h921v-103h-634zM379 59q23 0 43.5 -9t36 -25.5t24.5 -40.5t9 -54q-10 -54 -40.5 -91.5t-82.5 -37.5q-24 0 -45.5 8t-37 23.5t-25 37t-9.5 48.5t9.5 52t26.5 44.5t40 31.5
t51 13z" />
    <glyph glyph-name="bn_yya" unicode="&#x9df;" horiz-adv-x="961" 
d="M803 1040v-1056l-43 47q-26 65 -71 135.5t-106 128.5t-135 95.5t-157 37.5h-21q-9 0 -20 -2l-137 174q72 75 146.5 137.5t156.5 124.5q-10 2 -20 11.5t-25 21.5q-18 15 -45 24t-58 16t-64 13.5t-63.5 17.5t-57 28.5t-44.5 45.5h-79v103h1044v-103h-201zM385 272
q22 0 43 -8.5t37 -23.5t25.5 -34.5t9.5 -41.5q0 -20 -8.5 -39.5t-22.5 -35t-32.5 -25t-39.5 -9.5q-22 0 -42.5 9.5t-36.5 25t-25.5 36t-9.5 42.5q0 25 10 44.5t25 33t33 20t34 6.5zM700 1040h-372q37 -22 69 -50t62 -59t58 -64l56 -66q-61 -62 -125.5 -120.5t-117.5 -127.5
q120 -37 209 -111t161 -190v788z" />
    <glyph glyph-name="bn_rri" unicode="&#x9e0;" horiz-adv-x="1239" 
d="M672 -117q-53 46 -110.5 87.5t-118 80l-122.5 75.5l-122 73l297 217l12 33q-32 24 -63 38.5t-62 24t-63.5 16.5l-67.5 15l-107 153q51 46 107.5 84t115.5 71t120.5 62.5l121.5 59.5q-11 15 -27.5 30t-34.5 27t-36.5 19.5t-34.5 7.5q-11 -26 -43.5 -49.5t-72.5 -42.5
t-81 -30t-69 -11q-38 0 -69 6.5t-54 22.5t-37.5 44t-19.5 70q0 21 8 41.5t22.5 36.5t35 25.5t44.5 9.5q41 0 63.5 -30t22.5 -71q136 12 213 142q72 -32 130 -86.5t106 -139.5v353l103 -101v-549q50 -31 91.5 -70t69.5 -91v804l103 -75v-123h233v-103h-233v-827l-33 39
q-2 14 -9.5 34t-16.5 41.5l-18.5 42.5t-15.5 36q-20 35 -35.5 57.5t-33.5 39.5t-41.5 31.5t-60.5 34.5v-493l-38 37l-36 102l-21.5 39t-25.5 42.5t-24.5 36t-17.5 19.5l-225 -159q30 -19 72.5 -48.5l85 -61.5l79.5 -61.5t56 -48.5q11 -14 18 -30t9 -33l6 -76zM676 840
q-38 -12 -73.5 -30.5t-71.5 -42t-74.5 -52l-83.5 -62.5q94 -49 168.5 -114.5t134.5 -153.5v455z" />
    <glyph glyph-name="bn_lli" unicode="&#x9e1;" horiz-adv-x="987" 
d="M947 -479q-18 -12 -45 -25t-54.5 -24t-52 -18.5t-38.5 -7.5q11 26 17 60.5t6 69.5q0 65 -24 98.5t-83 33.5q-12 0 -24 -5t-23 -19q0 -11 4.5 -25.5t14.5 -20.5q9 3 18 3q25 0 38 -19.5t13 -42.5t-13.5 -42.5t-41.5 -19.5q-30 0 -52 10t-36 27.5t-21 39.5t-7 46
q0 30 10 59.5t28.5 53t45.5 38.5t61 15q36 0 70 -21t61.5 -52.5t45.5 -69t22 -70.5q18 12 28 32.5t15 42t6.5 41t1.5 31.5q0 43 -29.5 68t-74 41.5t-97.5 30t-100.5 33t-82 50t-42.5 82.5v6q0 4 1 8q-9 -2 -18 -2h-16q35 47 55.5 109t20.5 125q0 40 -9 77.5t-29.5 68.5
t-52.5 53t-77 30q-22 0 -42.5 -10t-39.5 -33q0 -18 13.5 -38t58.5 -29q20 0 34.5 -9t24.5 -23.5t14.5 -32t4.5 -34.5q0 -20 -6 -39.5t-17.5 -34.5t-29 -24.5t-40.5 -9.5q-35 0 -67 17.5t-56 46t-38.5 64.5t-14.5 72q0 42 14.5 80.5t43 68.5t70.5 48t96 18q109 0 190 -94
q38 -43 50.5 -92t12.5 -100q0 -23 -2 -45l-4 -45q30 20 61.5 49.5t57 65t42 74.5t16.5 77q0 48 -27 87.5t-86 68.5q-54 26 -117 45.5l-127.5 38.5t-126 41t-111 53.5t-84 76t-44.5 109.5q0 50 40.5 96t114.5 80l35 -51q-48 -9 -69 -33t-21 -53q0 -34 25.5 -67t68.5 -50
q68 -27 142.5 -50t147 -49t137.5 -58.5t114.5 -78.5t78.5 -109t29 -150q0 -57 -29.5 -114t-78 -106.5t-109.5 -89t-124 -62.5q-1 -5 -1 -9v-6q0 -20 14.5 -39t40.5 -29q40 -16 84.5 -29.5t88 -29t83 -35t69.5 -46.5t48 -64t18 -87q0 -26 -9 -64t-34 -69z" />
    <glyph glyph-name="bn_likaar" unicode="&#x9e2;" horiz-adv-x="0" 
d="M-134 -598q-18 -12 -45 -25t-54.5 -24t-52 -18.5t-38.5 -7.5q11 26 17 60.5t6 69.5q0 65 -24 98.5t-83 33.5q-12 0 -24 -5t-23 -19q0 -11 4.5 -25.5t14.5 -20.5q9 3 18 3q25 0 38 -19.5t13 -42.5t-13.5 -42.5t-41.5 -19.5q-30 0 -52 10t-36 27.5t-21 39.5t-7 46
q0 30 10 59.5t28.5 53t45.5 38.5t61 15q36 0 70 -21t61.5 -52.5t45.5 -69t22 -70.5q18 12 28 32.5t15 42t6.5 41t1.5 31.5q0 43 -29.5 68t-74 41.5t-97.5 30t-100.5 33t-82 50t-42.5 82.5q0 15 6 35.5t18 41.5t28.5 39t37.5 29l61 -31q-14 -2 -23.5 -13.5t-15.5 -25.5
t-9 -28.5t-3 -23.5q0 -20 14.5 -39t40.5 -29q40 -16 84.5 -29.5t88 -29t83 -35t69.5 -46.5t48 -64t18 -87q0 -26 -9 -64t-34 -69z" />
    <glyph glyph-name="bn_llikaar" unicode="&#x9e3;" horiz-adv-x="0" 
d="M-134 -598q-18 -12 -45 -25t-54.5 -24t-52 -18.5t-38.5 -7.5q11 26 17 60.5t6 69.5q0 65 -24 98.5t-83 33.5q-12 0 -24 -5t-23 -19q0 -11 4.5 -25.5t14.5 -20.5q9 3 18 3q25 0 38 -19.5t13 -42.5t-13.5 -42.5t-41.5 -19.5q-30 0 -52 10t-36 27.5t-21 39.5t-7 46
q0 30 10 59.5t28.5 53t45.5 38.5t61 15q36 0 70 -21t61.5 -52.5t45.5 -69t22 -70.5q18 12 28 32.5t15 42t6.5 41t1.5 31.5q0 43 -29.5 68t-74 41.5t-97.5 30t-100.5 33t-82 50t-42.5 82.5q0 15 6 35.5t18 41.5t28.5 39t37.5 29l61 -31q-14 -2 -23.5 -13.5t-15.5 -25.5
t-9 -28.5t-3 -23.5q0 -20 14.5 -39t40.5 -29q40 -16 84.5 -29.5t88 -29t83 -35t69.5 -46.5t48 -64t18 -87q0 -26 -9 -64t-34 -69zM-697 -730q-18 -12 -45 -25t-54.5 -24t-52 -18.5t-38.5 -7.5q11 26 17 60.5t6 69.5q0 65 -24 98.5t-83 33.5q-12 0 -24 -5t-23 -19
q0 -11 4.5 -25.5t14.5 -20.5q9 3 18 3q25 0 38 -19.5t13 -42.5t-13.5 -42.5t-41.5 -19.5q-30 0 -52 10t-36 27.5t-21 39.5t-7 46q0 30 10 59.5t28.5 53t45.5 38.5t61 15q36 0 70 -21t61.5 -52.5t45.5 -69t22 -70.5q18 12 28 32.5t15 42t6.5 41t1.5 31.5q0 43 -29.5 68
t-74 41.5t-97.5 30t-100.5 33t-82 50t-42.5 82.5q0 15 6 35.5t18 41.5t28.5 39t37.5 29l61 -31q-14 -2 -23.5 -13.5t-15.5 -25.5t-9 -28.5t-3 -23.5q0 -20 14.5 -39t40.5 -29q40 -16 84.5 -29.5t88 -29t83 -35t69.5 -46.5t48 -64t18 -87q0 -26 -9 -64t-34 -69z" />
    <glyph glyph-name="bn_zero" unicode="&#x9e6;" horiz-adv-x="1026" 
d="M516 901q80 0 151.5 -32t125 -86t85 -124.5t31.5 -148.5q0 -75 -35 -146.5t-95.5 -127t-142.5 -89.5t-175 -34q-81 0 -147.5 36t-114.5 96t-74.5 139t-26.5 165q0 72 36 136t95 112t134 76t153 28zM580 793q-72 0 -138 -32t-117 -84.5t-81.5 -119t-30.5 -135.5
q0 -29 11 -63t36 -63t64.5 -49t95.5 -20q39 0 81 12.5t82 36t76 56.5t63.5 73.5t43.5 87.5t16 99q0 43 -12.5 80t-37.5 64t-63 42t-89 15z" />
    <glyph glyph-name="bn_one" unicode="&#x9e7;" horiz-adv-x="897" 
d="M526 51q-43 -23 -91 -41t-93 -18q-30 0 -63.5 11t-61.5 31t-46.5 47.5t-18.5 61.5q0 31 16.5 65.5t46 62.5t70 46.5t88.5 18.5q28 0 57.5 -5t56.5 -15t50.5 -23.5t40.5 -30.5q34 16 46.5 50.5t12.5 72.5q0 32 -6.5 61t-16.5 48q-48 65 -98.5 118t-103 102l-104.5 99
t-103 109q-32 38 -42.5 64.5t-10.5 47.5t8 44.5t25.5 44t43.5 33.5t62 13q22 0 40.5 -13t31.5 -33.5t20.5 -46t7.5 -50.5q0 -28 -10 -51l80 -84l83.5 -88t79 -93.5t66 -100t45.5 -107t17 -115.5q0 -103 -55 -186.5t-171 -149.5z" />
    <glyph glyph-name="bn_two" unicode="&#x9e8;" horiz-adv-x="981" 
d="M983 -166q-86 82 -180.5 157.5t-196.5 138.5t-211 109t-225 70l-100 348q21 -42 69.5 -75t109.5 -57.5t126.5 -41t120.5 -24.5q31 0 68 10.5t68.5 29t52.5 44t22 55.5q-12 58 -47.5 101.5t-84 77t-105 59l-108.5 47.5q-39 16 -65 33.5t-41.5 38t-22 44t-6.5 52.5
q0 18 8 35.5t22 31.5t33 22.5t42 8.5q50 0 77 -22.5t33 -86.5q57 -22 120 -58.5t115.5 -87.5t87 -117.5t34.5 -147.5q0 -65 -21 -114.5t-59 -87t-90 -65t-113 -47.5l112 -76l119 -87.5t114 -93.5t97 -93l25 -131v0z" />
    <glyph glyph-name="bn_three" unicode="&#x9e9;" horiz-adv-x="1040" 
d="M975 514q0 -83 -28 -161.5t-80 -140t-126 -99t-166 -37.5q-181 0 -360 239q-54 72 -90.5 142.5t-61.5 142.5t-41 147.5t-30 157.5l90 -39q6 -49 16 -91.5t25.5 -83t36 -82t47.5 -89.5q23 -41 59.5 -85t83.5 -81.5t103 -61.5t118 -24q55 0 109 24.5t96 66t68 95t26 111.5
q0 73 -8.5 124.5t-33 87.5t-69 61.5t-116.5 48.5q19 -23 27 -49t8 -52q0 -35 -13 -68.5t-37 -60t-58.5 -43t-77.5 -16.5q-36 0 -68.5 18.5t-57 48.5t-39 68t-14.5 76q0 51 20 94.5t56 75.5t86 50t109 18q52 0 112 -27t114.5 -80.5t97 -132.5t59.5 -182z" />
    <glyph glyph-name="bn_four" unicode="&#x9ea;" horiz-adv-x="1018" 
d="M829 371q0 -64 -32.5 -119.5t-90 -97t-136 -65t-169.5 -23.5q-57 0 -114.5 23.5t-103.5 63t-75 91t-30 108.5q7 48 27 90t51.5 74t73 54t89.5 30q-44 11 -82 33.5t-66 54.5t-44 74t-16 92q0 67 30 125t79 101.5t112 68.5t129 25q63 0 122 -19t105.5 -54.5t74.5 -84.5
t28 -109q0 -36 -16 -73.5t-42 -70.5t-58 -58.5t-63 -36.5q48 -14 88 -41t68.5 -65.5t44.5 -86.5t16 -104zM481 717q56 31 92.5 55t58 46t30 43.5t8.5 47.5q0 37 -17.5 69.5t-47 56.5t-68.5 38t-82 14q-28 0 -63 -9.5t-65.5 -28.5t-51.5 -48t-21 -67q0 -35 17.5 -70
t48.5 -64.5t72 -51.5t89 -31zM684 330q0 37 -28.5 77.5t-68.5 74.5t-82 56.5t-69 22.5l-81 -52.5t-60.5 -49.5t-37.5 -58t-13 -77q0 -27 17 -54t45 -48t64 -34.5t74 -13.5q36 0 69.5 5t64 21.5t57.5 47.5t49 82z" />
    <glyph glyph-name="bn_five" unicode="&#x9eb;" horiz-adv-x="1026" 
d="M995 745q-70 -13 -144.5 -52.5t-135.5 -96.5t-100.5 -125.5t-39.5 -140.5q0 -51 21 -95t55.5 -79.5t79 -61t92.5 -37.5q-45 -20 -94 -29.5t-100 -9.5q-120 0 -223 34.5t-178.5 97.5t-118.5 152t-43 198q0 67 20.5 134.5t56.5 130.5t85.5 120t106.5 104t119.5 80.5
t125.5 50.5l168 -39q-23 -5 -40 -18.5t-29 -31.5t-18 -39t-6 -42q0 -20 5.5 -38t17 -32t29.5 -22t43 -8q8 0 16.5 1t17.5 3l84 -51q35 -22 67 -36t60 -22zM711 752q-39 4 -71 22t-55.5 45t-37.5 60.5t-17 70.5q-70 -32 -131 -87.5t-106.5 -126t-71.5 -150t-26 -158.5
q0 -43 18 -84t47.5 -77t68 -67t79.5 -53t82.5 -35t76.5 -14q-27 25 -48.5 57t-37 66.5t-24 69.5t-8.5 67q0 64 18 125t52 112.5t82.5 92t109.5 64.5z" />
    <glyph glyph-name="bn_six" unicode="&#x9ec;" horiz-adv-x="989" 
d="M944 403q-12 -87 -43.5 -157t-78.5 -118.5t-108 -74.5t-134 -26q-93 5 -171 51.5t-141.5 119t-112.5 163.5t-82.5 185.5t-52.5 185.5t-22 163l59 -27q19 -101 52.5 -204.5t89 -193t137.5 -158.5t199 -101h42q68 0 121.5 24t90 63t56 88.5t19.5 100.5q0 39 -11 78t-36 74
q-9 -24 -28.5 -49t-46.5 -46.5t-59 -38.5t-65 -26l-67 -6q-42 1 -78 15.5t-64.5 39t-46.5 58t-24 73.5l-39 275q-19 0 -36 8t-30 21.5t-20.5 31.5t-7.5 37q0 18 8 36t23 31.5t36.5 22t49.5 8.5q30 0 53 -12t38.5 -33t24 -50.5t8.5 -63.5v-324q0 -23 15.5 -39.5t50.5 -19.5
q43 10 80 38t68 66t54.5 81t39.5 83q93 -68 143.5 -168.5t50.5 -216.5l-4 -68v0z" />
    <glyph glyph-name="bn_seven" unicode="&#x9ed;" horiz-adv-x="1032" 
d="M956 72q-1 -14 -6.5 -27t-19 -23t-37.5 -16t-62 -6q-51 12 -74.5 56t-23.5 104v362h-303q-27 0 -64.5 19.5t-73.5 50.5t-64 69t-35 76l-5 43q0 60 30 120t77 108t104 78t111 30q39 0 80 -15.5t79 -42.5t72.5 -62t59.5 -74t40 -79t15 -77v-569q20 0 38 -4t32 -15t22.5 -31
t8.5 -52v-11t-1 -12zM735 676q2 5 2 10v14q0 23 -7.5 54.5t-21 66t-30.5 68.5t-36.5 61t-39 43.5t-37.5 16.5q-19 0 -43.5 -10.5t-50 -29t-50 -43.5t-45 -54.5t-35 -62t-19.5 -65.5q0 -56 45 -65l51 -4h317v0z" />
    <glyph glyph-name="bn_eight" unicode="&#x9ee;" horiz-adv-x="1059" 
d="M983 717q-21 -67 -115 -99l-108 -6q-85 0 -88 -28l6 -21q31 -64 31 -123q0 -60 -27 -119.5t-77 -111.5t-121 -93.5t-158 -66.5l-11 -2q-20 0 -47.5 18.5t-55 47.5t-50.5 63t-35 66v676q-51 0 -84 24t-33 80q0 51 26 78.5t64 27.5q22 0 44.5 -8.5t41 -23.5t31 -34.5
t14.5 -41.5l11 -107v-247q7 11 26.5 28t46.5 33.5t60 30t67 18.5q21 0 40 -4.5t40.5 -19t48.5 -40.5t64 -69q4 14 10 25t23 37q13 20 34.5 32t46.5 18.5t52 9.5t52 5.5t45.5 6t33.5 11.5l35 62l16 -6q5 -14 6.5 -29t1.5 -29q0 -18 -2.5 -35t-5.5 -34zM555 537q0 17 -10 34.5
t-28 31.5t-44 23t-57 9q-22 0 -41 -2t-39.5 -8t-43 -18t-50.5 -32v-348l24 -57q15 0 42.5 11t59 32t64 51t59 67.5t43.5 82.5t17 96z" />
    <glyph glyph-name="bn_nine" unicode="&#x9ef;" horiz-adv-x="987" 
d="M918 412q0 -41 -20 -83t-54 -81.5t-77.5 -74.5t-90.5 -60.5t-93.5 -40.5t-86.5 -15q14 47 23 100t9 107q0 46 -9 89t-31.5 78t-60.5 59t-95 32q-18 0 -39 -18.5t-39 -46.5t-29.5 -61t-11.5 -62q0 -51 33 -74l41 2h4q19 0 32 -8.5t21 -22t12 -30.5t4 -33q0 -51 -21 -82
t-69 -31q-32 0 -61 14.5t-52 39t-39 57t-22 67.5l-4 46q0 67 24 128t63.5 108t92 75t109.5 28q54 0 103.5 -26.5t87.5 -69.5t60.5 -96.5t22.5 -108.5q0 -47 -14 -81l98 67q58 46 58 121q0 124 -133 197l-289 116q-73 29 -132.5 65.5t-101.5 79t-65 90t-23 99.5q0 27 10 47
t26 34t36 21t39 7q13 0 29 -6.5t30 -19t23.5 -30t9.5 -39.5v-6q0 -44 -29 -65l68 -64l299 -98q66 -29 122.5 -70t99 -93.5t68.5 -115.5t31 -135z" />
    <glyph glyph-name="bn_asamira" unicode="&#x9f0;" horiz-adv-x="909" 
d="M758 1040v-1058l-56 77q-15 35 -33 73t-36 69q-34 56 -85.5 104t-113 84t-128 57.5t-130.5 24.5l-131 186q144 101 293 181t317 133v69h-701v103h992v-103h-188zM655 444q-54 73 -127.5 132.5t-154.5 99.5l-113 -74q127 -53 224 -135.5t171 -198.5v176zM655 807
q-48 -17 -97.5 -37t-98.5 -45q35 -18 61.5 -34t48.5 -33t42 -37l44 -46v232v0z" />
    <glyph glyph-name="bn_asamiba" unicode="&#x9f1;" horiz-adv-x="909" 
d="M758 1040v-1058l-56 77q-15 35 -33 73t-36 69q-34 56 -85.5 104t-113 84t-128 57.5t-130.5 24.5l-131 186q144 101 293 181t317 133v69h-681v103h972v-103h-188zM655 807q-102 -31 -203.5 -86.5t-191.5 -118.5q24 -8 56.5 -25t69 -41.5t74.5 -54.5t74 -64.5t67.5 -72
t53.5 -76.5v539zM209 346l76.5 -43.5t83 -51t80 -59t68 -67t47.5 -75t18 -83.5q0 -37 -7 -37q-30 63 -76 116t-103.5 92.5t-123.5 63.5t-135 29q-6 0 -9 5.5t-3 13.5q0 11 7.5 27.5t19 31.5t25.5 26t28 11h4z" />
    <glyph glyph-name="bn_rupeemark" unicode="&#x9f2;" horiz-adv-x="879" 
d="M838 66h-41q-62 168 -139.5 312t-176.5 271q-97 124 -202.5 213.5t-223.5 145.5l162 88q100 -90 189 -200t170 -243q81 -134 146 -279.5t116 -307.5z" />
    <glyph glyph-name="bn_rupeesign" unicode="&#x9f3;" horiz-adv-x="786" 
d="M269 621v-279q0 -35 26.5 -60.5t77.5 -25.5q37 0 78 23t75.5 59t58 80t25.5 86l-24 -2q-66 0 -98.5 32t-32.5 107q0 33 11.5 56t30 37.5t42.5 21t49 6.5q44 0 78 -20.5t56.5 -53t34 -73t11.5 -79.5q0 -49 -15.5 -97.5t-43 -92.5t-65 -81t-81.5 -64t-93 -42.5t-99 -15.5
q-29 0 -62.5 15t-62.5 37.5t-51 49.5t-29 52v324h-98l-95 98h193v194q0 36 -18.5 50.5t-53.5 19.5q-33 0 -43 -10q-12 21 -18.5 34.5t-10.5 23t-5 15.5t-1 11q0 18 15.5 30t36 19.5t39 10.5t24.5 3q33 0 57.5 -13.5t41.5 -38t26.5 -59t12.5 -75.5v-215h57l96 -98h-153z" />
    <glyph glyph-name="bn_currency1" unicode="&#x9f4;" horiz-adv-x="885" 
d="M215 51l-164 90q118 54 219.5 142t201.5 214q101 129 180.5 272.5t142.5 313.5h43q-105 -326 -266 -591q-82 -134 -167.5 -243.5t-189.5 -197.5z" />
    <glyph glyph-name="bn_currency2" unicode="&#x9f5;" horiz-adv-x="979" 
d="M455 86l-176 57q235 145 235 281q0 36 -13.5 71.5t-36 64t-52.5 46t-64 17.5q-57 0 -57 -33q61 -79 61 -137q0 -28 -10 -54.5t-27 -47.5t-40.5 -33.5t-51.5 -12.5q-29 0 -54.5 14.5t-44.5 38.5t-29.5 56.5t-10.5 68.5q0 49 18.5 92t49.5 74.5t72.5 49.5t86.5 18
q46 0 90.5 -25t79.5 -68.5t58 -102.5t26 -126q68 81 131 177t119 208q56 113 91.5 209t49.5 182h62q-23 -143 -76 -294.5t-134 -314.5q-41 -82 -85 -152.5t-89.5 -130.5t-90.5 -108t-88 -85z" />
    <glyph glyph-name="bn_currency3" unicode="&#x9f6;" horiz-adv-x="1104" 
d="M1008 1171h67q-11 -133 -40.5 -269t-80.5 -281q-50 -140 -119 -245t-149.5 -175.5t-167.5 -106t-174 -35.5q-124 0 -192 65.5t-68 188.5q0 150 127 150q27 -2 50 -4q20 -2 39 -3t28 -1q99 0 155 45.5t56 124.5q0 26 -7.5 48.5t-20 39.5t-28.5 27t-34 10q-27 0 -27 -23
q0 -3 4 -11l9.5 -18.5t9.5 -23.5t4 -25q0 -25 -10 -46.5t-27.5 -37t-40 -24.5t-47.5 -9q-29 0 -54 10.5t-43 29t-28.5 44t-10.5 54.5q0 44 14 79.5t38.5 60t57 37.5t69.5 13q50 0 91.5 -20.5t71.5 -56t47 -82.5t17 -101t-21.5 -104t-58.5 -87.5t-88 -60t-109 -22.5l-143 8
h-4q-20 0 -29.5 -10.5t-9.5 -22.5q0 -27 13 -48.5t35 -36t51.5 -22.5t62.5 -8q61 0 131 19t140.5 63t139 118t127.5 183t105 258t72 344z" />
    <glyph glyph-name="bn_currency4" unicode="&#x964;" horiz-adv-x="324" 
d="M589 9l-43 33v987l104 -53v-1004z" />
    <glyph glyph-name="bn_currencyless" unicode="&#x9f8;" horiz-adv-x="748" 
d="M102 455v487q0 78 -59 78q12 110 84 110t72 -147v-516q0 -47 24 -47l21 -2q11 0 26.5 19.5t32.5 51.5t34 71.5l33 79t28.5 76t19.5 60.5q18 60 36 94t36 51t37 21t38 4q76 0 76 -153v-519q0 -34 8 -50.5t43 -16.5h2q0 -115 -73 -115q-78 0 -78 170v502q0 47 -21 47
q-10 0 -15.5 -18.5l-17.5 -57.5t-34.5 -100t-65.5 -146q-38 -74 -66.5 -113.5t-51.5 -58t-43.5 -21.5t-41.5 -3h-8q-76 0 -76 162z" />
    <glyph glyph-name="bn_currency16" unicode="&#x9f9;" horiz-adv-x="575" 
d="M30 622q0 56 22 106.5t60 88.5t88 60.5t106 22.5q75 0 129.5 -19.5t90 -54t53 -82.5t17.5 -105t-23 -109.5t-62.5 -93.5t-92 -65.5t-110.5 -24.5q-63 0 -114.5 18.5t-87.5 53.5t-56 84t-20 111v9zM498 653q0 72 -29.5 109.5t-100.5 37.5q-53 0 -96.5 -19t-75.5 -50.5
t-49.5 -72.5t-17.5 -86q0 -36 10 -60t27 -39t39.5 -21t47.5 -6q54 0 97.5 16.5t75 44.5t50.5 65.5t22 80.5z" />
    <glyph glyph-name="bn_isshar" unicode="&#x9fa;" horiz-adv-x="733" 
d="M414 1012q-51 0 -74 29.5t-23 72.5q0 19 7 37.5t20 33t32.5 23.5t45.5 9q46 0 73 -28.5t27 -78.5q0 -18 -7.5 -36t-21.5 -31.5t-34 -22t-45 -8.5zM782 1047q-41 -80 -80.5 -141.5t-83.5 -104.5t-96 -66.5t-116 -27.5q-54 0 -119 36t-131 119q-23 28 -40.5 68.5t-29 82.5
t-17.5 79.5t-6 60.5q0 19 6.5 33t18.5 14q11 0 19.5 -13t16 -34.5t14.5 -47.5t16.5 -52.5t21.5 -50t29 -39.5q38 -47 92 -72t119 -25q23 0 50 8.5t53.5 23.5t50.5 34.5t42 42.5q31 34 51.5 59t37.5 50.5t35.5 56.5l45.5 76q32 64 65.5 114.5t71 86t80.5 55t93 22.5h24
q13 0 35 -2q41 -6 54 -25t16 -45q-2 -31 -8.5 -55t-26.5 -55q-7 2 -14.5 3t-15.5 1h-10q-4 0 -9 -2q2 20 3 34.5t1 26.5q0 22 -7 36t-17 21.5t-21.5 10t-20.5 2.5q-40 0 -70 -18.5t-60 -61.5t-64.5 -113.5l-83.5 -175.5z" />
    <glyph glyph-name="bn_initekaar" horiz-adv-x="553" 
d="M627 1040l-89 -33.5t-49 -19.5q-85 -28 -149 -80.5t-107 -121.5t-64.5 -150.5t-21.5 -165.5q0 -60 12.5 -121t47.5 -112q16 -23 27 -41t28.5 -32.5t47 -26.5t83.5 -23q-28 23 -41 46t-18 58q1 28 11 48.5t26 34t36 20t42 6.5q24 0 48 -8t44 -23.5t32.5 -38t12.5 -51.5
q0 -28 -10.5 -59t-33.5 -57.5t-60 -44t-89 -17.5q-60 0 -108.5 24.5t-87 64.5t-67 92.5t-47 108.5t-27.5 111t-9 102q0 71 16 144t47.5 141t79.5 127.5t112.5 104t145.5 70.5t179 26v-103v0z" />
    <glyph glyph-name="bn_initaikaar" horiz-adv-x="539" 
d="M571 1040q-120 -19 -204 -69t-137.5 -125t-78.5 -172.5t-28 -212.5q6 -58 16 -111.5t32 -99t60.5 -81t102.5 -56.5l35 -4q-32 17 -48 46.5t-16 61.5q0 50 30 80.5t95 30.5q25 0 46.5 -10.5t37.5 -29.5t26.5 -45t14.5 -57q-5 -37 -23.5 -60.5t-48 -37.5t-67.5 -19.5
t-80 -5.5q-62 6 -109.5 33t-82.5 67.5t-58 91.5t-37 106t-20 109.5t-6 102.5q0 92 29.5 173t77 153t108 138l122.5 128q13 25 13 43q0 17 -10.5 31.5t-28 25.5t-40 17t-46.5 6l-148 -8q-33 0 -74 12t-77.5 37t-61 64t-24.5 92q0 64 49 106l35 -35q-17 -6 -26 -23.5t-9 -39.5
q0 -28 10.5 -42.5t27 -21t36 -8.5l37.5 -4l151 13q60 -2 114 -18.5t95.5 -48t65.5 -78t24 -109.5l-2 -33h100v-103z" />
    <glyph glyph-name="bn_reph" 
d="M-291 1227h-246l592 436l90 -12z" />
    <glyph glyph-name="bn_baphala" 
d="M-205 -250l-51 78q-17 25 -45.5 50t-63.5 45t-73.5 32.5t-75.5 13.5l-23 -2l-88 123l98 72l88 62l86 55.5t93 54.5q7 0 21.5 -15.5t30 -36l31 -40.5t24.5 -29v-487zM-256 213l-61.5 -33.5t-55 -32t-51 -34.5t-49.5 -39q29 -8 60.5 -28.5t61 -45.5t54.5 -50.5t41 -43.5
v307z" />
    <glyph glyph-name="bn_raphala" horiz-adv-x="0" 
d="M-143 -190l-52 32l-47 78q-15 20 -32.5 32t-37.5 18t-41.5 8t-43.5 2q-107 0 -187.5 -2t-122.5 -5q-68 6 -125.5 19.5t-100.5 45.5t-67 88t-24 146q0 38 8.5 75t28.5 75l41 -41q-4 -5 -6.5 -16.5t-4 -25t-2.5 -27t-2 -23.5q0 -56 27 -92t80 -56q58 -19 125.5 -24.5
t133.5 -5.5q40 0 77 1t69 1q62 0 117 -30.5t86 -90.5v278l103 92v-552z" />
    <glyph glyph-name="bn_half_ka" horiz-adv-x="960" 
d="M573 1040v-59q56 0 117.5 -23t113 -65t85 -101.5t33.5 -132.5q0 -30 -11 -59.5t-31.5 -52.5t-48.5 -37t-62 -14q-25 0 -47 8t-38.5 23.5t-26 38t-9.5 50.5q0 24 10.5 40t27.5 25.5t37 14t40 4.5q21 0 41 -11t34 -30q2 5 2 10v11q0 39 -24 70.5t-62 54t-85.5 35
t-95.5 12.5v-608l-55 28l-22 70q-37 57 -69 101.5t-71 77.5t-90.5 54.5t-128.5 32.5l-108 133q103 77 211.5 140.5t228.5 97.5v61h-489v103h1004v-103h-411zM469 850q-40 -13 -73 -26.5t-63.5 -30t-60.5 -35.5t-64 -43l77 -37t60.5 -36.5t57 -56.5t66.5 -96v361z" />
    <glyph glyph-name="bn_half_kha" horiz-adv-x="709" 
d="M698 274q-36 52 -86.5 89.5t-108 63t-119.5 40t-120 22.5l-164 166h109q17 0 47 3t65 10t71.5 18.5t66 29.5t48.5 42.5t19 56.5q0 19 -10.5 37t-36.5 37q-29 -32 -63.5 -54.5t-73.5 -37.5t-82.5 -24t-89.5 -15q-29 0 -54.5 7.5t-45.5 22t-31.5 36t-11.5 48.5
q0 42 30 63.5t70 25.5q48 -2 70.5 -16.5t25.5 -57.5q33 1 60 15t51.5 33.5t48 41t49.5 37.5q31 -23 66.5 -44.5t65.5 -48.5t49.5 -62.5t19.5 -86.5q0 -30 -21 -62.5t-53 -61t-70.5 -49.5t-72.5 -28q38 -17 77.5 -38t76.5 -47t70 -57t58 -67v-88z" />
    <glyph glyph-name="bn_half_ga" horiz-adv-x="512" 
d="M651 897q-24 21 -53 40.5t-60.5 35.5t-65 25.5t-64.5 9.5q-44 -7 -74 -16t-52.5 -25.5t-41 -42.5t-39.5 -68q29 6 59 11t59 5q48 0 84 -14t60 -36.5t36.5 -51.5t12.5 -59q0 -34 -17.5 -77t-44.5 -87.5t-60.5 -87t-65.5 -74.5l-101 121q31 21 66.5 57.5t64.5 74t48.5 69.5
t19.5 45q0 21 -18.5 35t-38.5 14q-12 0 -40 -13.5l-59 -29.5l-59 -29.5t-41 -13.5q-30 0 -52 16t-36.5 38.5t-21.5 47.5t-7 43q4 51 27 100.5t60.5 88.5t86 62.5t103.5 23.5q78 -4 136 -18t103.5 -38t83.5 -56.5t76 -74.5v-123z" />
    <glyph glyph-name="bn_half_gha" horiz-adv-x="741" 
d="M646 1040v-804l-60 38l-33 82q-17 42 -49.5 79t-74.5 64.5t-89.5 43.5t-95.5 16h-16q-7 0 -15 -2l-104 107l38 40.5l41 42.5t42 40t40 34q-15 -8 -30.5 -11t-30.5 -3q-29 0 -57 11.5t-50.5 31.5t-36.5 46.5t-14 55.5q0 23 6 45.5t19 42.5h-100v103h817v-103h-147z
M543 1040h-252q-20 0 -36 -9t-27.5 -22.5t-17.5 -29t-6 -29.5q0 -16 8 -30.5t20.5 -25t27.5 -16.5t30 -6q16 0 34 3.5t34.5 10t30.5 16.5t23 22l86 -84q-22 -13 -49 -35.5t-54 -48t-51 -51.5t-40 -46q81 -23 136.5 -68.5t102.5 -118.5v568z" />
    <glyph glyph-name="A" horiz-adv-x="669" 
d="M698 518q0 -60 -22 -107t-59.5 -79.5t-89 -49.5t-109.5 -17q-70 0 -128 36t-104.5 94.5t-80.5 132.5t-57.5 149.5t-36.5 146.5t-15 124l54 -49q9 -50 24 -104t37 -106t52 -98.5t68.5 -81.5t85.5 -55.5t104 -20.5q44 0 79.5 12t60 32.5t38 46.5t13.5 54q0 23 -9.5 46.5
t-32.5 45.5l-37.5 -42.5t-43.5 -42.5t-47.5 -35.5t-50.5 -22.5q-40 1 -68 19t-46.5 43.5t-29 54t-16.5 49.5v166q-31 19 -66 43.5t-68.5 51.5t-62 56t-46.5 56l151 30q23 -38 41.5 -74.5t53.5 -65.5q10 27 30 51.5t48 42.5t62 29t73 11q28 0 57 -8t51.5 -23.5t37 -38
t14.5 -52.5q0 -26 -17.5 -52.5t-46.5 -48t-68 -35.5t-81 -14q-35 0 -60 15v-109q0 -23 8.5 -36.5t31.5 -14.5q25 5 46.5 17.5t39.5 30t33 38t27 40.5q34 -13 66 -43t57 -69t40 -83.5t15 -85.5zM520 1002q-6 15 -29 15q-25 -3 -49.5 -8.5t-46.5 -16.5t-39 -28.5t-26 -43.5
q4 -5 18 -12.5t26 -7.5q25 0 51 6.5t48 18t36 27.5t14 35q0 10 -3 15z" />
    <glyph glyph-name="bn_half_nga" horiz-adv-x="553" 
d="M774 471q0 -54 -24.5 -102.5t-64.5 -85t-90.5 -57.5t-102.5 -21q-91 0 -161 37t-122 98t-88 140.5t-59 163.5t-34.5 167t-15.5 152l49 -41q11 -58 30 -121t46.5 -124.5t64 -118.5t82 -102.5t100.5 -76t120 -39.5q44 0 78 16.5t57.5 43.5t36 61t12.5 69q0 31 -11.5 59.5
t-39.5 53.5l-35 -41.5t-39 -37.5t-45.5 -27.5t-54.5 -10.5q-52 0 -90.5 20t-64.5 53.5t-39 77t-13 89.5q0 34 7 70.5t19 72t27 69t31 62.5h-368v103h583q99 0 155 -37t56 -113q0 -48 -19.5 -76.5t-49 -44t-64.5 -21t-66 -7.5q-27 0 -54 5t-50.5 13.5t-40.5 18.5t-23 20
q-18 -34 -33.5 -79t-15.5 -87q0 -38 18 -66t66 -36q25 0 50 12t45.5 31t36 43t22.5 49q94 -37 140 -115.5t46 -181.5zM573 1051q-21 0 -43.5 -5t-42 -15t-33.5 -25.5t-18 -36.5q3 -16 16 -26.5t32 -16.5t40 -8t40 -2q11 0 20 1.5t16 2.5q13 0 26 7t23.5 18.5t17.5 24.5t9 25
q-13 31 -39 43.5t-64 12.5z" />
    <glyph glyph-name="bn_half_ca" horiz-adv-x="455" 
d="M207 1040q3 -55 28 -98.5t64 -75t88 -51.5t100 -29q31 -3 59 -11.5t48.5 -24.5t32.5 -39.5t12 -57.5q0 -5 -0.5 -9.5t-3.5 -10.5q-27 -64 -62 -127.5t-80 -118t-101.5 -96.5t-127.5 -62q-32 1 -61 23.5t-51 54t-35 66.5t-13 61v606h-114v103h604v-103h-387zM477 651
q-4 1 -12.5 1.5t-18 2l-19 3t-15.5 4.5q-37 16 -65 33.5t-51 39t-44 48t-45 61.5v-408q0 -26 8 -42.5t33 -16.5q42 15 79.5 42.5t67.5 63.5t51 79t31 89z" />
    <glyph glyph-name="bn_half_cha" horiz-adv-x="713" 
d="M768 119q-41 48 -105 95t-142.5 85.5t-166 65.5t-174.5 36l-76 146q39 -14 74.5 -20.5t69.5 -6.5q22 0 55.5 6.5t71 19.5t75 32.5t67.5 45t48.5 57.5t18.5 71q0 24 -13.5 39.5t-33.5 24.5t-43 13t-43 7q6 -17 6 -31q0 -35 -24.5 -69.5t-61 -63.5t-79 -48t-79.5 -22l-31 6
q-18 4 -34.5 14t-29 23.5t-19.5 29t-7 30.5v335h-96v103h733v-103h-563q6 -28 25 -49t46 -35t59 -22t64 -10l99 8q39 0 73.5 -21t60.5 -55t41 -78t15 -90q0 -48 -20.5 -85t-54 -65.5t-75.5 -50.5t-85 -41q48 -18 89 -43t81.5 -58.5t82.5 -74.5l91 -90l10 -61v0zM303 848
q-18 10 -37.5 19t-37.5 20.5t-33 25.5t-25 33v-227q0 -26 4.5 -33.5t20.5 -7.5q22 0 48.5 15t49.5 37.5t38 50t15 53.5v2z" />
    <glyph glyph-name="bn_half_ja" horiz-adv-x="606" 
d="M397 1040q5 -30 20 -51.5t37.5 -35.5t50 -20.5t56.5 -6.5q34 0 67 7.5t58 22.5v-90q-50 -20 -102 -20q-73 0 -137 39t-101 108q-18 -17 -36.5 -36.5t-34 -41t-25.5 -46t-10 -50.5q0 -9 1 -18.5t5.5 -18t15 -13.5t29.5 -5q20 3 42.5 11t44 18.5t41 23.5t32.5 25
q52 -23 76 -70t24 -100q0 -42 -11.5 -82.5t-37 -73t-67.5 -52.5t-103 -20q-50 0 -93.5 28t-79 73.5t-63.5 103.5t-47 119.5t-29.5 120.5t-11.5 106q19 -13 19 -22q19 -68 42.5 -138t59.5 -129t88 -100t127 -51q33 0 60 8.5t46.5 23t30.5 34t11 41.5q0 33 -31 67
q-13 -8 -31 -15.5t-37.5 -14.5t-39.5 -11t-38 -4q-21 0 -48 6.5t-50 22t-39 43t-16 69.5q0 25 7 49.5t19 50.5t27.5 54l32.5 61h-278v103h845v-103h-418z" />
    <glyph glyph-name="bn_half_jha" horiz-adv-x="870" 
d="M820 1040v-694l-60 39q-11 42 -25 76t-35 62.5t-49 52.5t-65 47v-369l-62 35l-28 71q-27 50 -66 98t-83 85t-89.5 59.5t-85.5 22.5h-13t-14 -2l-106 131q64 47 117.5 81.5t105 62t105 51.5l116.5 50v41h-485v103h588v-407q42 -23 74 -59t57 -76v691l59 -32l2 -11
q2 -18 5 -36.5t10 -34t19.5 -25.5t33.5 -10h106v-103h-132zM483 855q-33 -11 -62.5 -23.5t-59 -28t-61.5 -34.5t-69 -44q47 -21 82 -43.5t63.5 -50t54 -61t52.5 -77.5v362z" />
    <glyph glyph-name="bn_half_nya" horiz-adv-x="1217" 
d="M1153 453q-17 -22 -39 -33.5t-53 -11.5q-42 4 -82 22t-77 45t-70.5 59t-63.5 64v-330l-39 39q-8 28 -17.5 56t-25.5 50.5t-40 37t-60 14.5q-29 0 -64.5 -3.5t-69.5 -8l-63 -8t-45 -3.5h-22q-58 0 -105.5 21t-81.5 59t-53 89.5t-19 113.5q0 56 16.5 108.5t51.5 96.5
l31 -33q-22 -29 -32.5 -64.5t-10.5 -72.5q0 -59 24.5 -97t66 -60t95 -30t111.5 -8h12q43 0 78 -3.5t65.5 -12.5t59 -24t59.5 -38v519l-8 28q-3 25 -37 25q-37 -12 -70.5 -32t-61 -47t-48 -60t-31.5 -70q15 6 31 6t30.5 -7t25 -19t16.5 -28t6 -34v-4q-5 -45 -29 -66.5
t-55 -21.5h-10q-4 0 -9 2h-10q-63 0 -93 37t-30 100v16q0 31 15.5 66.5t41 71t59 67.5t69.5 57t71.5 39.5t65.5 14.5h10q25 -11 48.5 -23.5t41.5 -27.5t28.5 -32t10.5 -38v-176q17 35 41.5 73.5t55.5 70.5t68 52.5t79 20.5q28 0 58.5 -16t55.5 -41t41.5 -56t16.5 -61v-10
q0 -45 -18 -84t-44 -68q2 -3 4 -7t4 -9l19 -38.5t17.5 -41.5t12.5 -42t5 -40q0 -35 -7.5 -56.5t-23.5 -43.5zM1110 561q15 21 18 45q0 22 -16.5 38t-30.5 32q-18 -11 -42 -20.5t-44 -12.5q-37 0 -65.5 22t-28.5 62q0 16 7.5 32t20.5 28.5t29 20t33 7.5q19 -8 41.5 -8.5
t42.5 -5.5q20 11 28.5 34t10.5 42q0 17 -7.5 31.5t-20 25t-28.5 16.5t-32 6h-4q-42 -5 -83.5 -26t-76 -53.5t-59 -72t-33.5 -81.5l2 -16q9 -36 31.5 -69.5t53 -59.5t68.5 -42t79 -16h4q35 0 61 10.5t41 30.5z" />
    <glyph glyph-name="bn_half_tta" horiz-adv-x="651" 
d="M162 1040v-530q0 -23 14.5 -40t40.5 -17h4q2 -2 10 -2q14 0 36 11t46.5 29.5t49 43t44.5 51t33 53.5t15 51q-7 -2 -14 -3t-13 -1q-18 0 -35.5 6t-31.5 17.5t-22.5 27t-8.5 33.5v6q1 24 9.5 43.5t22.5 34t32 22t36 7.5h6q72 -25 102.5 -71t30.5 -101q0 -40 -14 -82
t-38 -81.5t-56.5 -75t-69.5 -61.5t-76.5 -41.5t-78.5 -15.5h-15q-22 1 -42.5 15t-37.5 35t-30 45.5t-19 44.5l-6 47v499h-92v103h495q4 8 4.5 15t0.5 13q0 38 -28 60t-67 22h-51q-46 0 -92.5 -2.5t-89.5 -7.5q-40 0 -82.5 11.5t-77.5 33t-57.5 51.5t-22.5 68q0 32 15 60
t41 42l2 -28q-11 -11 -15 -22.5t-4 -22.5q0 -18 10.5 -33t27 -26t36.5 -17.5t39 -7.5l262 14q47 -1 88.5 -14.5t72 -41t48.5 -69t18 -98.5h119v-103h-524z" />
    <glyph glyph-name="bn_half_ttha" horiz-adv-x="639" 
d="M387 1040q37 -41 67.5 -92t52 -106.5t33 -113.5t11.5 -112q0 -59 -20 -115t-57 -99.5t-88 -70t-112 -26.5q-48 0 -91 21t-75 56.5t-50.5 81t-18.5 93.5q0 38 12 76q42 7 86 38.5t80.5 73t60 87t23.5 81.5v15q0 28 -3.5 56.5t-12.5 55.5h-285v103h236q-11 31 -31.5 69
l-41 79t-35.5 83.5t-15 81.5v12q0 47 21.5 88t60.5 70l94 -80q-29 -13 -49 -23.5t-32.5 -24t-19.5 -33t-8 -50.5v-4q0 -29 17 -66t41.5 -74t51.5 -70.5l48 -57.5h328v-103h-279zM479 690q0 54 -24.5 122t-71.5 128l4 -66q0 -65 -22.5 -122t-65.5 -113q-14 -26 -41.5 -42.5
t-54.5 -30.5t-47.5 -30t-20.5 -42q0 -32 8.5 -54.5t24.5 -37t37 -21.5t47 -8q54 5 96.5 32t71.5 70t44 98t15 117z" />
    <glyph glyph-name="bn_half_dda" horiz-adv-x="823" 
d="M389 1040v-305q31 3 61 20.5t56.5 42t49 52t38.5 51.5q33 -20 59.5 -49.5t45 -64.5t28.5 -73.5t10 -76.5q0 -61 -20 -115t-56.5 -95t-88 -65t-113.5 -24h-37q-69 9 -121.5 43t-92 85t-67 115.5t-45.5 134.5t-28 141t-15 136l45 -26q7 -50 19 -105.5t30.5 -109.5
t45 -103.5t62.5 -87.5t83.5 -62t107.5 -26q46 1 88 15.5t74 40t51 60t19 73.5q0 26 -9.5 54t-31.5 56q-13 -23 -36.5 -50t-52.5 -50.5t-61 -39.5t-61 -16h-6q-45 4 -70 30t-39 71v323h-311v103h862v-103h-473z" />
    <glyph glyph-name="bn_half_ddha" horiz-adv-x="653" 
d="M193 1040v-532q0 -20 11 -35.5t34 -17.5q34 9 69.5 31.5t66 54.5t51.5 71t26 80q-7 -2 -13 -3t-12 -1q-18 0 -35.5 6t-31.5 17t-22.5 26.5t-8.5 34.5v8q1 20 5.5 39t15 33.5t29 23.5t48.5 11h2q36 0 62.5 -17t44 -45t26 -62.5t8.5 -68.5q0 -31 -11.5 -67.5t-32.5 -72.5
t-49.5 -70.5t-63.5 -62t-74.5 -46t-81.5 -23.5q-35 0 -70 34t-69 91v563h-117v103h676v-103h-483z" />
    <glyph glyph-name="bn_half_nna" horiz-adv-x="436" 
d="M614 584q-29 57 -70.5 104.5t-85.5 81.5t-87 53t-74 19h-25q-11 -2 -17 -3t-11 -1q23 -14 39 -36t16 -61q0 -20 -8.5 -41.5t-25.5 -39.5t-43.5 -30t-63.5 -12q-32 0 -61 12.5t-50.5 33.5t-34 48.5t-12.5 57.5q0 46 16 79t40.5 54.5t53 34t53.5 18.5t42.5 7.5t19.5 1.5h4
q54 0 110.5 -21.5t108 -63t95 -103t71.5 -142.5v-51v0z" />
    <glyph glyph-name="bn_half_ta" unicode="&#x9ce;" horiz-adv-x="731" 
d="M709 63q6 20 15 40t9 44q0 41 -25.5 74.5t-74.5 67.5q-16 11 -45.5 24l-65.5 27.5l-75.5 29.5l-75.5 30t-65.5 28.5t-45.5 24.5q-99 57 -162.5 152.5t-74.5 223.5q0 61 22.5 120t65 104.5t103.5 73.5t138 28q62 0 113 -20t87.5 -53.5t56.5 -77t20 -89.5q0 -100 -48 -152
t-153 -52q-48 0 -90 21.5t-74.5 57t-53.5 81.5t-26 94q-8 0 -19.5 -13t-22 -32.5t-18 -43t-7.5 -45.5q6 -63 46.5 -119t127.5 -100q43 -21 85.5 -39l84.5 -37t83 -40.5t81 -49.5q42 -23 73 -60t52 -81.5t32.5 -93.5t14.5 -96l-6 -76zM543 920q0 26 -11.5 45.5t-37.5 33
t-68 20.5t-102 7q-23 0 -36.5 -7t-13.5 -36q0 -56 40.5 -95.5t103.5 -56.5q21 0 42.5 6.5t38.5 17t29 24t15 26.5v15z" />
    <glyph glyph-name="bn_half_tha" horiz-adv-x="752" 
d="M639 1038v-782q-37 61 -81 120.5t-98 106.5t-119.5 76t-143.5 29h-19l-125 164l27 -2q47 0 102.5 16t104.5 44.5t84 68.5t41 88q0 19 -8 36t-22 30t-32.5 20.5t-38.5 7.5q-35 -5 -71.5 -26t-61.5 -44q16 -15 28.5 -35.5t12.5 -42.5v-4q-1 -15 -9.5 -30t-21.5 -26.5
t-29.5 -18.5t-33.5 -7h-6q-26 0 -44.5 10t-31.5 26t-19 36t-6 41q0 48 25.5 86t65.5 64t87.5 39.5t92.5 13.5h6q35 0 69 -17.5t61 -45.5t43.5 -63.5t16.5 -72.5v-12q-4 -48 -16.5 -85.5t-35 -68.5t-55 -56.5t-75.5 -49.5q31 -12 67.5 -36.5t72 -56t67.5 -66t53 -64.5v841
l41 -51l4 -14q0 -31 7 -52.5t20 -29.5h137v-105h-133z" />
    <glyph glyph-name="bn_half_da" horiz-adv-x="403" 
d="M183 1038v-230q32 22 60 44t57.5 41.5t62.5 36.5t75 29l132 -87q-84 -128 -84 -256q0 -40 8 -80.5t27 -82.5l-64 14q-25 54 -40.5 111t-15.5 116q0 35 6.5 69.5t18.5 70.5q-44 -12 -83.5 -34t-72.5 -49.5t-59 -60.5t-43 -67l-88 75v340h-80v105h643v-105h-460z" />
    <glyph glyph-name="bn_half_dha" horiz-adv-x="707" 
d="M592 1040v-831q-17 28 -29 58l-24 61q-34 52 -75.5 98.5t-90 81.5t-103.5 56.5t-116 23.5l-93 125l199 147h-10q-34 0 -62 10t-48.5 28t-32 43.5t-11.5 57.5q0 11 3.5 32t18 42t43.5 37t79 16q18 0 34 -6t27.5 -16t18 -23t6.5 -26l-2 -11q0 -9 -6.5 -17t-17 -13.5t-24 -9
t-26.5 -3.5q-30 0 -49 19q-5 -3 -9 -14.5t-4 -28.5t9 -32t24 -26t33.5 -17.5t36.5 -6.5q9 0 15 1t11 1l197 115v131h211v-103h-133zM514 868q-78 -31 -149 -77.5t-134 -102.5q85 -40 158.5 -102t124.5 -146v428z" />
    <glyph glyph-name="bn_half_na" horiz-adv-x="410" 
d="M-29 1040v103h508v-103h-508zM610 598q-21 34 -47 71t-56 67t-64.5 49.5t-73.5 19.5h-12t-11 -2q17 -14 24 -29.5t7 -32.5q0 -21 -9.5 -41t-25 -35.5t-37 -25.5t-45.5 -10h-12q-37 5 -62.5 19.5t-41 32.5t-22.5 38t-7 37q0 43 13.5 77.5t37.5 58.5t57 37t72 13
q53 0 102.5 -24.5t92.5 -62t76.5 -82.5t54.5 -87z" />
    <glyph glyph-name="bn_half_pa" horiz-adv-x="627" 
d="M520 995q-20 14 -42.5 19.5t-45.5 5.5q-30 0 -59 -10t-54.5 -27.5t-45.5 -42.5t-31 -55q37 0 64 -14t44.5 -33.5t26 -40t10.5 -33.5q2 -9 2 -16v-15v-12l203 227zM750 797q-19 17 -43.5 29.5t-49.5 15.5q-14 0 -22 -8l-322 -342l-102 67l88 86q14 14 23.5 27.5t9.5 36.5
q0 29 -11.5 50t-41.5 34q-23 0 -33 -5l-123 -34q-9 0 -22.5 5t-27 15.5t-23 25t-9.5 34.5q2 9 4.5 24.5t13.5 32.5q30 48 67 91t79.5 76t91 52.5t102.5 19.5h15q64 -4 122.5 -28.5t110 -63t94 -87.5t74.5 -101v-119z" />
    <glyph glyph-name="bn_half_pha" horiz-adv-x="965" 
d="M262 1040q29 -19 57.5 -44t55.5 -52.5t52 -57.5t46 -59l-194 -161q40 -17 80 -40.5t76 -53t66.5 -63.5t51.5 -73v543q17 5 34 6.5t36 1.5q57 0 108 -18.5t89.5 -52.5t61.5 -82.5t23 -108.5q0 -62 -35.5 -100.5t-95.5 -38.5q-38 0 -62.5 25t-29.5 65q0 57 57 76l27 4
q26 0 57 -23l13 -6q0 -2 2 -3t4 -1t2 1t2 3l4 16q-1 34 -15.5 57t-37.5 37.5t-52 20.5t-57 6q-30 0 -57 -6v-618l-31 28l-22 43q-27 52 -64.5 97.5t-85 80t-103 54.5t-118.5 20l-92 131q48 59 106 105l117 94q-18 21 -40.5 32.5t-47 17.5t-49.5 10t-47 10q-31 15 -55.5 37.5
t-53.5 39.5h-45v103h987v-103h-725z" />
    <glyph glyph-name="bn_half_ba" horiz-adv-x="700" 
d="M582 1040v-817l-65 72l-19 41q-52 117 -145.5 185t-217.5 79l-100 143l107 73.5t105.5 65t110 56.5t121.5 47v55h-503v103h751v-103h-145zM479 821q-39 -12 -67 -23t-53 -24.5t-50 -31l-59 -42.5q44 -19 75 -38t56 -43.5t47.5 -56t50.5 -75.5v334z" />
    <glyph glyph-name="bn_half_bha" horiz-adv-x="842" 
d="M0 1040v103h860v-103h-860zM481 803q104 58 142 151q92 -46 146 -112.5t54 -161.5q0 -64 -18.5 -128t-59 -115.5t-104.5 -84t-154 -32.5q-75 0 -134 27t-105 73.5t-81 107t-62.5 128t-48.5 136.5l-40 132l-13 43l65 -17q18 -52 39.5 -106t49 -105.5t61 -97t75.5 -79
t93.5 -53.5t115.5 -20q15 0 37.5 2.5t47 10t49.5 22t44.5 38.5t32 59t12.5 84q0 34 -13.5 63t-39.5 61q-15 -30 -38 -62.5t-52.5 -59.5t-66.5 -44.5t-81 -17.5q-53 0 -92.5 14t-66 39.5t-39.5 60t-14 75.5v8q0 26 11.5 49.5t30 41.5t43.5 28.5t52 10.5q56 0 88 -26.5
t32 -77.5q0 -23 -9.5 -39.5t-23.5 -31.5z" />
    <glyph glyph-name="bn_half_ma" horiz-adv-x="578" 
d="M614 776q20 6 30.5 36.5t10.5 72.5q0 30 -5 57t-14.5 48t-23.5 34.5t-32 15.5h-334q8 -9 23 -44t32 -97q11 -23 41 -47t67.5 -44t76 -33t65.5 -13q15 0 27.5 3t29.5 9zM516 616q-27 0 -54.5 13t-54 33t-51.5 44l-47 46l-12 12v-12q0 -29 -12 -52t-31 -39t-42.5 -24
t-47.5 -8q-22 0 -42 9t-35.5 24.5t-24.5 36t-9 42.5q0 37 12.5 61t33 40t46.5 25.5t54 17.5q2 6 2 12v12q0 21 -5 44t-15.5 42.5t-26.5 32t-37 12.5h-123v103h774v-103h-78q37 -34 54.5 -80t17.5 -96q0 -46 -14 -90.5t-41 -79.5t-65.5 -56.5t-86.5 -21.5h-27h-12z" />
    <glyph glyph-name="bn_half_ya" horiz-adv-x="731" 
d="M616 1040v-809l-34 35q-20 53 -55.5 107t-82.5 97t-103.5 70t-117.5 27h-17t-18 -2l-106 133q51 60 113.5 107.5t121.5 97.5q-21 14 -39.5 24t-38 18.5t-40.5 15t-47 12.5q-35 8 -70 22t-55 45h-27v103h754v-103h-138zM537 1040h-301q32 -18 58.5 -37t50.5 -41.5
t46.5 -48t46.5 -55.5l-49.5 -46.5l-46 -43.5l-45.5 -46t-47 -54q41 -10 81.5 -33.5t77 -55t69.5 -68.5t59 -73v602z" />
    <glyph glyph-name="bn_half_ra" 
d="M-291 1227h-246l592 436l90 -12z" />
    <glyph glyph-name="bn_half_la" horiz-adv-x="606" 
d="M-29 1143h807v-103h-807v103zM778 709q-16 23 -33 38t-33.5 23.5t-30.5 12t-24 3.5q-18 0 -32.5 -8t-24.5 -21.5t-15 -30t-5 -34.5v-4l2 -49l-35 -21q-25 54 -52.5 91.5t-58.5 61t-66 34t-75 10.5q-34 0 -62.5 -10.5t-49.5 -31t-32.5 -51.5t-11.5 -73q0 -54 30.5 -86
t84.5 -51q-14 20 -21.5 40t-7.5 40q0 21 9 39t24 30.5t35 19.5t43 7q28 0 49 -12t34.5 -32t20 -46t6.5 -53q0 -37 -18 -63t-43.5 -42t-54 -23t-49.5 -7q-56 0 -101 27t-76.5 69.5t-49 94.5t-17.5 101q0 59 19 103.5t51 74t74 44t87 14.5q22 0 47 -5.5t49 -14.5t44 -21
t32 -25l68 -71v6q0 21 9 42t24 37t35 26t42 10q26 0 49.5 -8.5t43.5 -23t38 -34t33 -41.5v-115z" />
    <glyph glyph-name="bn_half_sha" horiz-adv-x="578" 
d="M723 791q-18 34 -41.5 71.5t-51.5 68t-59.5 50.5t-64.5 20q-28 0 -48 -14.5t-34 -46.5q0 -2 21 -22t46.5 -48.5t46.5 -61.5t21 -60q0 -47 -24.5 -73t-67.5 -26q-18 0 -30.5 3t-25.5 14.5t-29 33t-40 58.5q-15 -28 -28.5 -47.5t-29 -32t-35 -19.5t-46.5 -10
q-21 0 -38.5 8.5t-29.5 22.5t-19 31.5t-7 36.5q0 30 15 55.5t37 48t47 42.5t44 40q0 26 -22.5 45t-67.5 33l-92 8l-66 70q12 2 25 2h26q44 0 88 -7t81.5 -22.5t66.5 -39.5t43 -58q10 21 26.5 44t37 42t44 31t47.5 12h11q31 0 71.5 -22.5t79 -56.5t67.5 -73.5t36 -73.5
l-25 -90z" />
    <glyph glyph-name="bn_half_ssa" horiz-adv-x="485" 
d="M600 1040q22 -31 31.5 -63.5t9.5 -63.5q0 -58 -29.5 -111t-76.5 -94.5t-106 -67.5t-118 -30h-8q-40 0 -78 19t-67.5 50t-47.5 71.5t-18 83.5q0 57 30.5 107.5t84.5 98.5h-248v103h778v-103h-137zM557 963q0 13 -9.5 25.5t-24 22.5t-32 15.5t-34.5 5.5q-34 0 -66 -16
t-49 -45q0 -4 2 -6l133 -119q18 0 33 10t25.5 26.5t16 37.5t5.5 43zM283 905q-32 -2 -55 -29t-23 -61q0 -18 7.5 -35t19.5 -29.5t28 -20t33 -7.5q18 0 35.5 6.5t34 17t31 24t26.5 26.5q0 4 -2 6z" />
    <glyph glyph-name="bn_half_sa" horiz-adv-x="737" 
d="M786 885q19 18 19 47q0 14 -5.5 32.5t-15.5 35.5t-23.5 28.5t-29.5 11.5h-264q0 -8 4.5 -19.5t11 -24l13 -24t10.5 -20.5q59 -114 166 -114l18 2q25 0 53.5 12.5t42.5 32.5zM553 750q-27 21 -49.5 46t-39 50t-25.5 50t-9 46l-32.5 -78.5t-41.5 -84t-56.5 -70.5t-76.5 -37
h-6q-19 0 -46 16t-52.5 39t-44.5 50t-23 48l25 49l20 -2q28 -35 47.5 -47t34.5 -12q16 0 39 21.5t44 51.5t35.5 62t14.5 53v7q0 18 -10.5 25t-30.5 7h-307v103h946v-103h-98q37 -31 57.5 -66t20.5 -61v-14q0 -35 -11 -67t-32 -58t-51.5 -44t-69.5 -25q-18 0 -41.5 2t-48 7
t-46.5 13.5t-36 22.5z" />
    <glyph glyph-name="bn_half_ha" horiz-adv-x="662" 
d="M338 1040l14 -41q3 -16 17 -22q40 -2 81.5 -23t74.5 -54t54 -75t21 -86q0 -40 -12.5 -73t-39 -61.5t-68.5 -53t-101 -47.5l6 -15q51 -23 96.5 -54t87.5 -67t80.5 -75.5t73.5 -79.5l31 -109q-60 66 -130.5 125.5t-149.5 108t-166 84t-179 53.5l-86 213q24 -18 52.5 -32
t59 -23.5t62.5 -14t62 -4.5q29 0 69.5 9t79 28t67.5 48t35 69v2q0 24 -11.5 45t-30.5 36.5t-43.5 24.5t-49.5 9q-20 0 -39 -6q-2 -29 -15 -54.5t-33.5 -45.5t-47.5 -33t-55 -15h-6q-34 0 -60 25t-26 65v4q1 26 18 51.5t43 46.5t57 35t60 17q2 2 2 6q0 9 -7.5 18.5t-18 17.5
t-21.5 14.5t-19 8.5h-227v103h707v-103h-369z" />
    <glyph glyph-name="bn_half_rra" horiz-adv-x="825" 
d="M393 1040v-239q0 -6 0.5 -18.5t2.5 -25.5t6 -23t12 -11q34 12 62 33t53 46.5t48 52.5t48 50q35 -22 61 -52.5t43 -66.5t25 -75.5t8 -79.5q0 -61 -18.5 -119t-55 -103t-90 -72.5t-123.5 -27.5h-8q-74 2 -133.5 35t-105.5 86.5t-79.5 123t-56 145t-34.5 152t-15 144.5
l47 -24q7 -52 19 -110t31.5 -114t47.5 -107.5t66.5 -91t88 -64.5t112.5 -27h8q46 0 88 16.5t74.5 44.5t51.5 64.5t19 76.5q0 52 -37 101q-15 -20 -40 -46.5t-55 -50.5t-62 -40.5t-62 -16.5q-28 0 -48.5 11.5t-35 30.5t-24.5 43.5t-17 51.5v297h-315v103h860v-103h-467z
M537 111q-26 -54 -78 -54q-40 0 -67 27t-27 66q0 16 5.5 32t17 29t29 22.5t42.5 12.5q17 0 33 -7t29 -19t20.5 -28.5t7.5 -35.5q0 -24 -12 -45z" />
    <glyph glyph-name="bn_half_rha" horiz-adv-x="664" 
d="M203 1040v-514q0 -18 9.5 -33.5t29.5 -15.5q31 9 65.5 31.5t64 54t50.5 70t27 80.5q-7 -2 -13 -3t-14 -1q-18 0 -35 6t-30.5 16.5t-22 26t-8.5 35.5v6q3 48 28 76t68 30h2q32 0 57 -15.5t42.5 -40t28 -55t13.5 -59.5v-12q0 -32 -13 -70t-35 -77t-52 -75.5t-64 -65
t-70.5 -45.5t-72.5 -17h-6q-27 1 -47 14t-35 35.5t-27 52.5t-24 64v501h-119v103h686v-103h-483zM371 154q-11 -34 -36 -51t-52 -17q-35 0 -61.5 24.5t-26.5 65.5v4q0 21 7 40t20 33.5t30 23t37 8.5q37 0 63.5 -24t26.5 -66q0 -13 -2.5 -23t-5.5 -18z" />
    <glyph glyph-name="bn_half_yya" horiz-adv-x="739" 
d="M618 1040v-815l-34 37q-20 53 -56 107t-83.5 98t-105 72t-118.5 28h-14t-14 -2l-107 133q57 59 113.5 107t119.5 96q-8 2 -18.5 10.5t-26.5 18.5t-39.5 19t-56.5 12q-54 5 -86.5 22t-60.5 57h-31v103h772v-103h-154zM371 317q-26 -36 -66 -36q-17 0 -33 7t-28 19
t-19.5 27.5t-7.5 32.5q0 19 7.5 34t19.5 25t26 15t27 5q17 0 33 -6.5t28 -17.5t19.5 -25.5t7.5 -31.5q0 -11 -4 -22.5t-10 -25.5zM539 1040h-287q28 -17 52.5 -39t47.5 -46.5l45 -50l43 -50.5l-96 -93t-90 -97q91 -29 161 -85.5t124 -146.5v608z" />
    <glyph glyph-name="bn_half_asamira" 
d="M-291 1227h-246l592 436l90 -12z" />
    <glyph glyph-name="bn_half_asamiba" horiz-adv-x="700" 
d="M582 1040v-817l-41 60q-23 67 -63.5 123t-94 97t-117 66.5t-131.5 30.5l-100 143q111 78 225 138.5t244 103.5v55h-508v103h731v-103h-145zM504 858q-79 -23 -157 -66.5t-146 -91.5q97 -40 172 -104t131 -152v414zM160 504q17 -5 45 -18.5t60 -34t64 -47t58 -56.5
t42.5 -63t16.5 -66q0 -14 -6 -33q-22 49 -57.5 89.5t-79.5 70t-94.5 47.5t-102.5 23q-10 0 -10 14q0 9 5.5 21.5t14.5 24t20 20t22 8.5h2z" />
    <glyph glyph-name="bn_yaphala" horiz-adv-x="494" 
d="M449 1040q-79 0 -126 -47.5t-47 -148.5q0 -67 10.5 -136t22.5 -139t22.5 -138.5t10.5 -133.5v-28q0 -13 -2 -25q-4 -43 -34.5 -88t-74.5 -82.5t-94.5 -64.5t-93.5 -34q-34 0 -49 37v6q0 10 9.5 15.5t29.5 13.5q37 14 69.5 31t56.5 41t38 55.5t14 73.5q0 50 -12 106.5
t-26.5 114.5t-26.5 115t-13 108v10q0 52 13 97.5t34.5 86.5t48.5 79t56 75h-285v103h504v-103h-55z" />
    <glyph glyph-name="bn_k_ra" horiz-adv-x="1481" 
d="M848 20q-10 5 -23 56q-9 66 -56 96.5t-118 30.5q-48 0 -102.5 -5t-104.5 -10.5t-91 -10.5t-62 -5q-68 0 -119.5 27.5t-85.5 74t-51 107t-17 125.5q0 74 22.5 148t65.5 134l41 -43q-29 -35 -43 -85t-14 -103q0 -50 12.5 -92.5t38.5 -74t66 -49t94 -17.5q48 0 100 8t103 8
q54 0 95 -6t76 -19.5t67 -34.5t67 -51v592l-8 33q-2 11 -9.5 17.5t-33.5 9.5q-44 -10 -87.5 -32t-81 -53.5t-66 -72t-42.5 -88.5l58 8q17 -5 32.5 -16.5t27.5 -28t19 -36t7 -38.5q0 -24 -10 -44.5t-25.5 -35.5t-34.5 -23.5t-37 -8.5q-65 0 -104 14t-61 39.5t-29 59.5t-7 75
q7 77 48 146.5t101.5 123t133 87.5t143.5 40q28 -5 58 -21t55 -38t40.5 -48t15.5 -50v-121q19 21 50.5 42t67.5 37.5t72.5 27t65.5 10.5q54 0 94.5 -17t68 -47t43 -72t18.5 -92q0 -35 -18 -72t-49 -68t-71 -51t-84 -20q-19 0 -42 9.5t-43.5 25.5t-34 37t-13.5 43
q0 30 4.5 54t17 41.5t35 26.5t58.5 9q19 0 35 -7.5t27 -19.5t17.5 -28t6.5 -33q0 -24 -12 -45q4 -2 10 -2q22 0 40.5 27t18.5 69q0 29 -12 53t-33 41.5t-49 27t-59 9.5t-61 -9t-58.5 -23.5t-56.5 -33t-54 -38.5v-660zM-50 1040v103h1569v-103h-1569z" />
    <glyph glyph-name="bn_k_ra1" horiz-adv-x="1288" 
d="M832 1040v-77q72 0 141 -35t122.5 -93t86.5 -133t33 -155q0 -41 -13.5 -75.5t-37 -60t-55 -39.5t-66.5 -14q-23 0 -45.5 10.5t-41.5 29t-30.5 44t-11.5 54.5q0 24 11 42.5t28.5 32t40 20.5t45.5 7q27 0 52.5 -12.5t41.5 -38.5q2 6 2 13v13q0 51 -24.5 96.5t-64.5 80
t-89.5 55t-100.5 20.5h-12t-12 -2v-817l-39 37q-32 85 -74.5 159.5t-101.5 132.5t-137.5 95.5t-182.5 48.5l-141 174q135 100 275 181.5t298 126.5v79h-762v103h1364v-103h-499zM729 821q-104 -35 -191.5 -88t-174.5 -117q59 -26 105 -51t87 -61t82.5 -88t91.5 -131v536z
M832 -152l-47 32l-43 78q-14 20 -30 32t-34 18t-38 8t-40 2q-97 0 -171 -2t-112 -5q-62 6 -114.5 19.5t-91.5 45.5t-61 88t-22 146q0 38 7.5 75t26.5 75l37 -41q-3 -5 -5.5 -16.5t-4 -25t-2.5 -27t-2 -23.5q0 -56 25 -92t73 -56q53 -19 114.5 -24.5t121.5 -5.5q37 0 70.5 1
t63.5 1q57 0 102.5 -22.5t73.5 -82.5v278l103 76v-552z" />
    <glyph glyph-name="bn_kh_ra" horiz-adv-x="1048" 
d="M901 1040v-1183l-41 32l-47 78q-51 60 -123 60q-90 0 -152 -1t-102 -2.5t-60.5 -2.5t-27.5 -1q-83 0 -143.5 21t-99.5 58t-58 88.5t-19 113.5q0 43 10.5 86.5t28.5 81.5l41 -41q-6 -22 -10 -43t-4 -43q0 -66 35 -102.5t95 -54.5t140.5 -21.5t171.5 -3.5q46 0 85 -3.5
t72 -15t59.5 -33.5t48.5 -59v139q-31 67 -83.5 117.5t-116 86t-133.5 57t-136 32.5l-170 211q20 -3 41 -5.5t43 -2.5q25 0 62 4.5t77.5 14t80.5 25.5t72 39t52 53.5t20 70.5q0 23 -11.5 45.5t-39.5 42.5q-59 -72 -141.5 -117t-184.5 -45q-29 0 -56 9t-47 25t-32 38.5
t-12 48.5q0 63 29 94.5t75 34.5q51 0 75 -22t24 -70q37 1 65.5 19t53 42.5t48.5 51.5t52 47l68 -59t63 -63t50 -77t28 -100q0 -36 -20 -76t-52 -75.5t-72.5 -63t-81.5 -37.5q94 -45 174 -117.5t136 -163.5v1026l59 -37q2 -19 3 -39.5t4 -40t10.5 -37.5t23.5 -32h176v-103
h-176z" />
    <glyph glyph-name="bn_g_ra" horiz-adv-x="1026" 
d="M1068 1040h-187v-1126l-52 33l-47 78q-24 29 -54.5 44t-68.5 15q-90 0 -152 -1t-101.5 -2t-60.5 -2t-28 -1q-84 0 -144.5 21.5t-99.5 59.5t-57 91t-18 115q0 42 10 83t29 78l41 -41q-6 -21 -10.5 -42.5t-4.5 -43.5q0 -65 34 -101.5t94 -54.5t142 -22t177 -4q40 0 79.5 -4
t75 -16.5t65 -36.5t48.5 -64v568q-11 63 -42.5 124t-78 109t-106 77.5t-127.5 29.5q-35 0 -68 -9t-61 -27t-49.5 -46t-32.5 -66q29 6 59.5 11t59.5 5q44 0 79.5 -13.5t60.5 -35t38.5 -49.5t13.5 -57q0 -35 -16.5 -79t-43.5 -90.5t-60 -92t-66 -82.5l-119 133l180 184
q18 18 25.5 35t9.5 31q0 20 -19.5 32.5t-37.5 12.5q-12 0 -40 -13.5l-59 -29.5l-59 -29.5t-41 -13.5q-30 0 -52 16t-36.5 38.5t-21.5 47.5t-7 43q4 55 29.5 104.5t66 87t93.5 59.5t112 22q94 0 167 -30.5t128.5 -83t94.5 -123t63 -151.5l-20 125t-12 86t-5.5 57.5t-1.5 39.5
v284l62 -59l-4 -27q0 -12 3.5 -27.5t10 -31t17 -29t25.5 -20.5h178v-103z" />
    <glyph glyph-name="bn_gh_ra" horiz-adv-x="987" 
d="M832 1040v-1208l-40 33l-45 80q-47 59 -115 59q-85 0 -143.5 -1t-96 -2t-57 -2t-26.5 -1q-80 0 -137.5 22.5t-94 62t-54 92.5t-17.5 114q0 43 11 84t28 80l38 -41q-8 -20 -11 -42.5t-3 -45.5q0 -66 32.5 -103.5t89.5 -55.5t133 -22t163 -4q37 0 73 -2.5t68.5 -12.5
t58.5 -30.5t42 -56.5v139q-29 51 -72 94.5t-95 75.5t-110.5 50t-116.5 18h-18t-19 -2l-135 139l50.5 52.5l53.5 56l54 53t53 43.5q-35 -19 -78 -19q-40 0 -78 17.5t-67.5 46t-47.5 65.5t-18 76q0 25 8.5 50t26.5 48h-154v103h1058v-103h-192zM729 1040h-355
q-26 0 -47.5 -13.5t-36.5 -33.5t-23.5 -42t-8.5 -40q0 -21 10.5 -40t26.5 -33.5t36 -22.5t39 -8q21 0 43.5 7t44.5 18t40 26t30 31l110 -109q-28 -17 -63 -46t-69.5 -62.5l-66 -67t-52.5 -59.5q54 -15 103 -41.5t92.5 -62.5t80.5 -79.5t66 -91.5v770z" />
    <glyph glyph-name="bn_c_ra" horiz-adv-x="944" 
d="M355 1040q7 -49 29.5 -85t55 -62.5t72.5 -45.5t83 -34.5t86.5 -29.5t82.5 -29q23 -9 39.5 -27.5t27.5 -40.5t16 -44t5 -40q0 -32 -7 -64.5t-19.5 -65t-29 -63t-34.5 -57.5v-641l-51 33l-41 76q-34 38 -76 50.5t-90 12.5l-199 -14q-68 0 -126 14.5t-101 47t-67.5 84.5
t-24.5 126q0 45 10 90.5t27 85.5l34 -41q-6 -20 -9 -42t-3 -44q0 -90 62 -133t169 -43h144q34 0 68.5 -3.5t67 -16t61 -37t49.5 -66.5v342q-62 -65 -124.5 -100t-119.5 -35q-29 0 -58.5 22t-54 52t-40 61.5t-15.5 51.5v755h-284v103h1011v-103h-626zM357 293
q0 -25 6.5 -38.5t31.5 -18.5q54 15 106.5 50t94 85.5t68 113t28.5 133.5q-54 17 -104.5 42t-94.5 57t-79 71t-57 84v-579z" />
    </font>
</defs>
</svg>
